Начать новую темуОтветить на тему  [ Сообщений: 3 ] 
Торрент файл
Размер: 20.52 GB • Зарегистрирован: 4 месяца 12 дней • Статус: Проверено
Скачан: 21 раз • Желающих скачать: 0 • Поблагодарили: 4 раза
 Раздают: 0  |  0 KB/s  ]   Качают: 0  |  0 KB/s  ] 
 Полного источника не было 1 день 10 часов 
Сообщения
 Добавлено: 2017-03-26 13:26
Аватара пользователя
Стаж: 9 лет 2 месяца
Возраст: 40
Сообщений: 59
Спасибок: 275
Лайков: 1
Звездные войны: Повстанцы (3 сезон)/ Star Wars: Rebels

Изображение

Страна: США
Жанр: фантастика, боевик, приключения
Продолжительность: 00:22:00
Год выпуска: 2016
Перевод: Профессиональный (многоголосый закадровый)Lost Film
Русские субтитры: нет
Режиссёр: Стюарт Ли, Дэйв Филони, Стивен Дж. Ли
Роли озвучивали: Ванесса Маршалл, Фредди Принц мл., Стивен Блум, Тия Сиркар, Тейлор Грэй, Дэвид Ойелоуо, Кит Шарабайка, Лайам О’Брайэн, Грег Уайзман, Грег Эллис
Описание: Анимационный телесериал, действие которого разворачивается в период между фильмами «Звёздные войны. Эпизод III: Месть ситхов» и «Звёздные войны. Эпизод IV: Новая надежда». Сериал будет рассказывать о разномастной группе повстанцев, экипаже космического корабля «Призрак», и их борьбе против Галактической Империи.
Качество: WEB-DL 1080p
Формат: MKV
Видео: AVC, 1920x1080, 23.976 fps, ~5500 kbps
Аудио: AC3, 48 KHz, 2 ch, 384 kbps (LostFilm)
Аудио 2: AC3, 48 KHz, 6 ch, 384 kbps
Сэмпл:http://sendfile.su/1321318
Кинопоиск:https://www.kinopoisk.ru/film/803148/
Список серий
01. Шаг во тьму (Steps Into Shadow)
02.Голокроны судьбы (The Holocrons of Fate)
03.Появление Антиллеса (The Antilles Extraction)
04.Герои Геры (Hera's Heroes)
05.Последняя битва (The Last Battle)
06.Имперские суперкоммандос (Imperial Supercommandos)
07.Стальная эскадрилья (Iron Squadron)
08.Миссия на Винкату (The Wynkahthu Job)
09.Информатор (An Inside Man)
10.Видения и голоса (Visions and Voices)
11.Призрак Джеонозиса. Часть1 (Ghosts of Geonosis (1))
12.Призрак Джеонозиса. Часть 2 (Ghosts of Geonosis (2))
13.Боевой заряд (Warhead)
14.Испытания Тёмного меча (Trials of the Darksaber)
15.Наследие Мандалора (Legacy of Mandalore)
16.Глазами Империи (Through Imperial Eyes)
17.Секретный груз (Secret Cargo)
18.Дроид-двойной агент (Double Agent Droid)
19.Солнца-близнецы (Twin Suns)
Свернуть
Подробные технические данные
General
Unique ID : 175655176574657869961750196859110343738 (0x8425F4D9974FBC04A39AA7220766C43A)
Complete name : f:\Films\Multfilms\Star Wars Rebels (Season 2) WEB-DL 1080p\01. The Siege of Lothal.mkv
Format : Matroska
Format version : Version 4 / Version 2
File size : 1.75 GiB
Duration : 43mn 23s
Overall bit rate : 5 773 Kbps
Encoded date : UTC 2015-11-26 17:17:30
Writing application : mkvmerge v8.2.0 ('World of Adventure') 64bit
Writing library : libebml v1.3.1 + libmatroska v1.4.2
DURATION : 00:43:23.520000000
NUMBER_OF_FRAMES : 81360
NUMBER_OF_BYTES : 124968960
_STATISTICS_WRITING_APP : mkvmerge v8.2.0 ('World of Adventure') 64bit
_STATISTICS_WRITING_DATE_UT : 2015-11-26 17:17:30
_STATISTICS_TAGS : BPS DURATION NUMBER_OF_FRAMES NUMBER_OF_BYTES

Video
ID : 1
Format : AVC
Format/Info : Advanced Video Codec
Format profile : High@L4
Format settings, CABAC : Yes
Format settings, ReFrames : 4 frames
Codec ID : V_MPEG4/ISO/AVC
Duration : 43mn 23s
Bit rate : 4 890 Kbps
Width : 1 920 pixels
Height : 1 080 pixels
Display aspect ratio : 16:9
Frame rate mode : Constant
Frame rate : 23.976 fps
Color space : YUV
Chroma subsampling : 4:2:0
Bit depth : 8 bits
Scan type : Progressive
Bits/(Pixel*Frame) : 0.098
Stream size : 1.48 GiB (85%)
Language : English
Default : Yes
Forced : No
Color range : Limited
Color primaries : BT.709
Transfer characteristics : BT.709
Matrix coefficients : BT.709

Audio #1
ID : 2
Format : AC-3
Format/Info : Audio Coding 3
Mode extension : CM (complete main)
Format settings, Endianness : Big
Codec ID : A_AC3
Duration : 43mn 23s
Bit rate mode : Constant
Bit rate : 384 Kbps
Channel(s) : 2 channels
Channel positions : Front: L R
Sampling rate : 48.0 KHz
Compression mode : Lossy
Stream size : 119 MiB (7%)
Title : LostFilm
Language : Russian
Default : Yes
Forced : No

Audio #2
ID : 3
Format : AC-3
Format/Info : Audio Coding 3
Mode extension : CM (complete main)
Format settings, Endianness : Big
Codec ID : A_AC3
Duration : 43mn 23s
Bit rate mode : Constant
Bit rate : 384 Kbps
Channel(s) : 6 channels
Channel positions : Front: L C R, Side: L R, LFE
Sampling rate : 48.0 KHz
Compression mode : Lossy
Stream size : 119 MiB (7%)
Language : English
Default : No
Forced : No

Text
ID : 4
Format : UTF-8
Codec ID : S_TEXT/UTF8
Codec ID/Info : UTF-8 Plain Text
Language : English
Default : No
Forced : No
Свернуть
Скриншоты
Изображение

Изображение

Изображение

Изображение

Изображение

Изображение

Изображение
Свернуть
Внимание! Раздача ведётся путём добавления новых серий
Внимание! Раздача ведётся путём добавления новых серий; при каждом добавлении создаётся новый торрент. Чтобы начать докачку новой серии, пользователям необходимо сделать следующее:
(1) остановить скачивание,
(2) удалить старый торрент у себя из клиента (старые серии удалять не надо),
(3) скачать новый торрент и запустить его у себя в клиенте вместо старого, при этом указать клиенту путь в старую папку куда и должно происходить скачивание новых серий.
Ваш клиент при этом должен произвести хеширование (проверку) старой папки (если не производит сам - помогите ему сделать это), и будет докачивать только те серии, которых у вас ещё нет. Старые серии при этом не удаляются, а продолжают раздаваться!
Если вы уже удалили старые серии, то предотвратить повторную закачку старых серий можно, отжав галочку в соответствующих местах при запуске нового торрента. По возможности, желательно не удалять старые серии как можно дольше, чтобы релизёр не столько продолжал раздавать старые серии, а смог сконцентрироваться на новых.
Свернуть
_________________
Изображение
Не в сети
Профиль  
 Добавлено: 2017-03-30 07:04 (спустя 3 дня)
Аватара пользователя
Стаж: 9 лет 2 месяца
Возраст: 40
Сообщений: 59
Спасибок: 275
Лайков: 1
Добавлена 20-я серия :)
_________________
Изображение
Не в сети
Профиль  
 Добавлено: 2017-04-08 22:00 (спустя 9 дней)
Аватара пользователя
Стаж: 9 лет 2 месяца
Возраст: 40
Сообщений: 59
Спасибок: 275
Лайков: 1
Добавлена 21-я серия :)
_________________
Изображение
Не в сети
Профиль  
Начать новую темуОтветить на тему  [ Сообщений: 3 ] 
Вы не можете начинать темы
Вы не можете отвечать на сообщения
Вы не можете редактировать свои сообщения
Вы не можете удалять свои сообщения