Начать новую темуОтветить на тему  [ 1 сообщение ] 
Торрент файл
Размер: 446.43 MB • Зарегистрирован: 3 года 9 месяцев • Статус: Проверено
Скачан: 19 раз • Желающих скачать: 0 • Поблагодарили: 5 раз
 Раздают: 0  |  0 KB/s  ]   Качают: 0  |  0 KB/s  ] 
 Полного источника не было 3 месяца 3 дня 
Сообщения
 Добавлено: 2013-08-31 13:35
Аватара пользователя
Стаж: 9 лет 2 месяца
Возраст: 28
Сообщений: 24
Спасибок: 147
Asking Alexandria - From Death To Destiny


Изображение


Тип релиза: Альбом (LP)
Страна: USA
Год выпуска: 2013
Жанр: Hardcore , Metalcore , Deathcore , Emocore , Post-Hardcore , Mathcore
Формат: m4a
Битрейт: lossless kbps
Продолжительность: 00:55:78

Треклист:
01. Don't Pray For Me [04:40]
02. Killing You [03:12]
03. The Death Of Me [04:19]
04. Run Free [04:11]
05. Break Down The Walls [03:31]
06. Poison [03:46]
07. Believe [04:31]
08. Creature [03:14]
09. White Line Fever [03:44]
10. Moving On [04:03]
11. The Road [03:27]
12. Until The End [04:31]
13. The Death Of Me (Rock Mix) (Bonus) [03:25]
14. Dead [04:00]
15. Someone, Somewhere (Ben Bruce Acoustic) [03:44]

Доп. информация:
Asking Alexandria побили свой личный рекорд. Их новый альбом «From Death to Destiny» дебютировал в чарте Billboard Top 200 на пятой позиции, что делает этот диск лучшим в истории группы.

Группа также громко отметилась на своей родине, завоевывая первые строчки во всех рок и метал-чартах Великобритании. Гитарист Бен Брюс недавно поделился своими впечатлениями по поводу взлета диска: «Я не знаю, как выразить все словами! Я просто искренне рад успеху нашего альбома »From Death to Destiny». Такое количество продаж всего лишь за первую неделю (более 40 тысяч копий) — это доказательство того, что тяжелая музыка жива и здорова».

Брюс продолжил: «Этого не произошло бы, если бы у нас не было таких преданных фанатов. Они доказывают нам, и всему миру снова и снова, что они являются силой, с которой нельзя бороться».
Свернуть

EAC log:
Exact Audio Copy V1.0 beta 3 from 29. August 2011
EAC extraction logfile from 7. August 2013, 16:31
Asking Alexandria / From Death To Destiny (f.y.e. Exclusive)
Used drive : TSSTcorpCDDVDW TS-L633C Adapter: 0 ID: 1
Read mode : Secure
Utilize accurate stream : Yes
Defeat audio cache : Yes
Make use of C2 pointers : No
Read offset correction : 6
Overread into Lead-In and Lead-Out : No
Fill up missing offset samples with silence : Yes
Delete leading and trailing silent blocks : No
Null samples used in CRC calculations : Yes
Used interface : Native Win32 interface for Win NT & 2000
Gap handling : Appended to previous track
Used output format : User Defined Encoder
Selected bitrate : 1024 kBit/s
Quality : High
Add ID3 tag : No
Command line compressor : C:\Program Files (x86)\Exact Audio Copy\Flac\flac.exe
Additional command line options : -8 -V -T "ARTIST=%artist%" -T "TITLE=%title%" -T "ALBUM=%albumtitle%" -T "DATE=%year%" -T "TRACKNUMBER=%tracknr%" -T "GENRE=%genre%" -T "PERFORMER=%albuminterpret%" -T "COMPOSER=%composer%" %haslyrics%--tag-from-file=LYRICS="%lyricsfile%"%haslyrics% -T "ALBUMARTIST=%albumartist%" -T "DISCNUMBER=%cdnumber%" -T "TOTALDISCS=%totalcds%" -T "TOTALTRACKS=%numtracks%" -T "COMMENT=%comment%" %source% -o %dest%
TOC of the extracted CD
Track | Start | Length | Start sector | End sector
---------------------------------------------------------
1 | 0:00.00 | 4:40.26 | 0 | 21025
2 | 4:40.26 | 3:11.65 | 21026 | 35415
3 | 7:52.16 | 4:18.67 | 35416 | 54832
4 | 12:11.08 | 4:10.53 | 54833 | 73635
5 | 16:21.61 | 3:31.32 | 73636 | 89492
6 | 19:53.18 | 3:46.37 | 89493 | 106479
7 | 23:39.55 | 4:31.22 | 106480 | 126826
8 | 28:11.02 | 3:14.15 | 126827 | 141391
9 | 31:25.17 | 3:43.38 | 141392 | 158154
10 | 35:08.55 | 4:02.44 | 158155 | 176348
11 | 39:11.24 | 3:26.65 | 176349 | 191863
12 | 42:38.14 | 4:30.41 | 191864 | 212154
13 | 47:08.55 | 3:24.61 | 212155 | 227515
14 | 50:33.41 | 4:00.34 | 227516 | 245549
15 | 54:34.00 | 3:43.46 | 245550 | 262320
Track 1
Filename D:\Convert\Exact Audio Copy\Asking Alexandria - From Death To Destiny (f.y.e. Exclusive) [FLAC]\01 - Don't Pray For Me.wav
Pre-gap length 0:00:02.00
Peak level 97.7 %
Extraction speed 2.0 X
Track quality 100.0 %
Test CRC B259352E
Copy CRC B259352E
Track not present in AccurateRip database
Copy OK
Track 2
Filename D:\Convert\Exact Audio Copy\Asking Alexandria - From Death To Destiny (f.y.e. Exclusive) [FLAC]\02 - Killing You.wav
Peak level 97.7 %
Extraction speed 2.2 X
Track quality 99.9 %
Test CRC AC054E63
Copy CRC AC054E63
Track not present in AccurateRip database
Copy OK
Track 3
Filename D:\Convert\Exact Audio Copy\Asking Alexandria - From Death To Destiny (f.y.e. Exclusive) [FLAC]\03 - The Death Of Me.wav
Peak level 97.7 %
Extraction speed 3.0 X
Track quality 100.0 %
Test CRC 0AB5F3A5
Copy CRC 0AB5F3A5
Track not present in AccurateRip database
Copy OK
Track 4
Filename D:\Convert\Exact Audio Copy\Asking Alexandria - From Death To Destiny (f.y.e. Exclusive) [FLAC]\04 - Run Free.wav
Peak level 97.7 %
Extraction speed 3.3 X
Track quality 100.0 %
Test CRC ADFF705E
Copy CRC ADFF705E
Track not present in AccurateRip database
Copy OK
Track 5
Filename D:\Convert\Exact Audio Copy\Asking Alexandria - From Death To Destiny (f.y.e. Exclusive) [FLAC]\05 - Break Down The Walls.wav
Peak level 97.7 %
Extraction speed 3.4 X
Track quality 100.0 %
Test CRC D4F16C9C
Copy CRC D4F16C9C
Track not present in AccurateRip database
Copy OK
Track 6
Filename D:\Convert\Exact Audio Copy\Asking Alexandria - From Death To Destiny (f.y.e. Exclusive) [FLAC]\06 - Poison.wav
Peak level 97.7 %
Extraction speed 3.5 X
Track quality 100.0 %
Test CRC 9692050F
Copy CRC 9692050F
Track not present in AccurateRip database
Copy OK
Track 7
Filename D:\Convert\Exact Audio Copy\Asking Alexandria - From Death To Destiny (f.y.e. Exclusive) [FLAC]\07 - Believe.wav
Peak level 97.7 %
Extraction speed 3.9 X
Track quality 100.0 %
Test CRC 683DB235
Copy CRC 683DB235
Track not present in AccurateRip database
Copy OK
Track 8
Filename D:\Convert\Exact Audio Copy\Asking Alexandria - From Death To Destiny (f.y.e. Exclusive) [FLAC]\08 - Creature.wav
Peak level 97.7 %
Extraction speed 3.0 X
Track quality 99.9 %
Test CRC 5361B149
Copy CRC 5361B149
Track not present in AccurateRip database
Copy OK
Track 9
Filename D:\Convert\Exact Audio Copy\Asking Alexandria - From Death To Destiny (f.y.e. Exclusive) [FLAC]\09 - White Line Fever.wav
Peak level 97.7 %
Extraction speed 4.1 X
Track quality 100.0 %
Test CRC 1DDFC29F
Copy CRC 1DDFC29F
Track not present in AccurateRip database
Copy OK
Track 10
Filename D:\Convert\Exact Audio Copy\Asking Alexandria - From Death To Destiny (f.y.e. Exclusive) [FLAC]\10 - Moving On.wav
Peak level 97.7 %
Extraction speed 4.2 X
Track quality 100.0 %
Test CRC 0D28F8E3
Copy CRC 0D28F8E3
Track not present in AccurateRip database
Copy OK
Track 11
Filename D:\Convert\Exact Audio Copy\Asking Alexandria - From Death To Destiny (f.y.e. Exclusive) [FLAC]\11 - The Road.wav
Peak level 97.7 %
Extraction speed 4.2 X
Track quality 100.0 %
Test CRC 2BCD7FC2
Copy CRC 2BCD7FC2
Track not present in AccurateRip database
Copy OK
Track 12
Filename D:\Convert\Exact Audio Copy\Asking Alexandria - From Death To Destiny (f.y.e. Exclusive) [FLAC]\12 - Until The End.wav
Peak level 97.7 %
Extraction speed 3.8 X
Track quality 99.9 %
Test CRC F6B80C87
Copy CRC F6B80C87
Track not present in AccurateRip database
Copy OK
Track 13
Filename D:\Convert\Exact Audio Copy\Asking Alexandria - From Death To Destiny (f.y.e. Exclusive) [FLAC]\13 - The Death Of Me (Rock Mix) (Bonus Track).wav
Peak level 100.0 %
Extraction speed 3.7 X
Track quality 99.9 %
Test CRC 847C36D0
Copy CRC 847C36D0
Track not present in AccurateRip database
Copy OK
Track 14
Filename D:\Convert\Exact Audio Copy\Asking Alexandria - From Death To Destiny (f.y.e. Exclusive) [FLAC]\14 - Dead.wav
Peak level 97.7 %
Extraction speed 4.8 X
Track quality 100.0 %
Test CRC 779E8C01
Copy CRC 779E8C01
Track not present in AccurateRip database
Copy OK
Track 15
Filename D:\Convert\Exact Audio Copy\Asking Alexandria - From Death To Destiny (f.y.e. Exclusive) [FLAC]\15 - Someone, Somewhere (Ben Bruce Acoustic).wav
Peak level 99.1 %
Extraction speed 4.8 X
Track quality 100.0 %
Test CRC 52D50505
Copy CRC 52D50505
Track not present in AccurateRip database
Copy OK
None of the tracks are present in the AccurateRip database
No errors occurred
End of status report
==== Log checksum DE92547CCE3B38463C4C5A0CA47348AF9C5C281A56906D7FC4E012670F01A5CC ====
Свернуть

Изображение Изображение 
Не в сети
Профиль  
Начать новую темуОтветить на тему  [ 1 сообщение ] 
Вы не можете начинать темы
Вы не можете отвечать на сообщения
Вы не можете редактировать свои сообщения
Вы не можете удалять свои сообщения