Правила форума

  • В этом разделе создание новых тем Запрещено.
  • Для создания новых тем пользуйтесь Корневым разделом DVD и HD фильмы.
Начать новую темуОтветить на тему  [ Сообщений: 9 ] 
Торрент файл
Размер: 5.64 GB • Зарегистрирован: 5 лет 10 месяцев • Статус: Проверено
Скачан: 584 раза • Желающих скачать: 0 • Поблагодарили: 120 раз
 Раздают: 0  |  0 KB/s  ]   Качают: 0  |  0 KB/s  ] 
 Полного источника не было 5 месяцев 28 дней 
Сообщения
 Добавлено: 2011-11-23 13:54
Top-releaser
Аватара пользователя
Стаж: 7 лет 11 месяцев
Сообщений: 3932
Спасибок: 269290
Лайков: 1139
БАБЛО

«Кино для тех, кто живет в 10-е»


Изображение


Год выпуска: 2011
Страна: Россия / Кинокомпания CTB
Жанр: Комедия, криминальный фильм
Продолжительность: 01:31:59
Озвучивание: Оригинальное
Режиссер: Константин Буслов
В ролях: Мария Берсенева, Роман Мадянов, Гия Гогишвили, Георгий Гургулия, Миша Месхи, Яков Кучеревский, Владимир Сычев, Кирилл Сафонов, Сергей Насибов, Кирилл Болтаев, Константин Адаев, Сергей Болотаев, Геннадий Поварухин, Андрей Седов (II), Алексей Шемес, Виктор Супрун, Виктория Лукина, Дмитрий Аросьев, Игорь Арташонов
Описание: Москва. Наши дни. В центре города из машины двое воришек крадут сумку с миллионом евро, думая, что им, наконец, повезло, и даже не представляя, во что, на самом деле, они ввязались. За деньгами начинается настоящая охота. Перед искушением не может устоять никто. Сумма в виде двух пачек денег по полмиллиона евро делает абсолютно разных людей одинаковыми в своих поступках и желаниях: А началось все с того, что «миллионщик» Григорий не захотел честно платить налоги.
КиноПоиск: 6.4 (2046)
IMDb: 6.4 (84)
Качество: BDRip 720p
Формат: MKV
Видео кодек: H.264
Аудио кодек: DTS
Видео: 1280x690 (1.855 ), 23.976 fps, 7096Kbps, 0.335 bit/pixel
Аудио: 48kHz 6ch 1510kbps
"MediaInfo"

Общее
Полное имя : Бабло 720p\Бабло.mkv
Формат : Matroska
Версия формата : Version 2
Размер файла : 5,64 Гбайт
Продолжительность : 1 ч. 31 м.
Общий поток : 8780 Кбит/сек
Название фильма : Бабло (2011) - Release for HDCLUB
Дата кодирования : UTC 2011-11-23 03:02:47
Программа кодирования : mkvmerge v5.0.1 ('Es ist Sommer') built on Oct 9 2011 11:55:43
Библиотека кодирования : libebml v1.2.2 + libmatroska v1.3.0

Видео
Идентификатор : 1
Формат : AVC
Формат/Информация : Advanced Video Codec
Профиль формата : High@L4.1
Параметр CABAC формата : Да
Параметр ReFrames формата : 8 кадров
Идентификатор кодека : V_MPEG4/ISO/AVC
Продолжительность : 1 ч. 31 м.
Битрейт : 7096 Кбит/сек
Ширина : 1280 пикселей
Высота : 690 пикселей
Соотношение сторон : 1,855
Частота кадров : 23,976 кадра/сек
Цветовое пространство : YUV
Субдискретизация насыщенности : 4:2:0
Битовая глубина : 8 бит
Тип развёртки : Прогрессивная
Бит/(Пиксели*Кадры) : 0.335
Размер потока : 4,56 Гбайт (81%)
Заголовок : Бабло (2011) - Release for HDCLUB
Библиотека кодирования : x264 core 119 r2106 07efeb4
Настройки программы : cabac=1 / ref=8 / deblock=1:-3:-3 / analyse=0x3:0x133 / me=umh / subme=11 / psy=1 / psy_rd=1.00:0.00 / mixed_ref=1 / me_range=64 / chroma_me=1 / trellis=2 / 8x8dct=1 / cqm=0 / deadzone=21,11 / fast_pskip=0 / chroma_qp_offset=-2 / threads=9 / sliced_threads=0 / nr=0 / decimate=0 / interlaced=0 / bluray_compat=0 / constrained_intra=0 / bframes=6 / b_pyramid=2 / b_adapt=2 / b_bias=0 / direct=3 / weightb=1 / open_gop=0 / weightp=2 / keyint=250 / keyint_min=23 / scenecut=40 / intra_refresh=0 / rc_lookahead=40 / rc=crf / mbtree=0 / crf=17.0 / qcomp=0.60 / qpmin=0 / qpmax=69 / qpstep=4 / vbv_maxrate=50000 / vbv_bufsize=62500 / crf_max=0.0 / nal_hrd=none / ip_ratio=1.40 / pb_ratio=1.30 / aq=1:0.80
Язык : Russian

Аудио
Идентификатор : 2
Формат : DTS
Формат/Информация : Digital Theater Systems
Идентификатор кодека : A_DTS
Продолжительность : 1 ч. 31 м.
Вид битрейта : Постоянный
Битрейт : 1510 Кбит/сек
Каналы : 6 каналов
Расположение каналов : Front: L C R, Side: L R, LFE
Частота : 48,0 КГц
Битовая глубина : 16 бит
Метод сжатия : С потерями
Размер потока : 993 Мбайт (17%)
Язык : Russian

Меню
00:00:00.000 : en:Chapter 01
00:05:39.714 : en:Chapter 02
00:11:42.451 : en:Chapter 03
00:19:21.118 : en:Chapter 04
00:25:20.185 : en:Chapter 05
00:30:28.284 : en:Chapter 06
00:37:07.934 : en:Chapter 07
00:43:26.687 : en:Chapter 08
00:50:37.534 : en:Chapter 09
00:55:13.643 : en:Chapter 10
01:02:06.639 : en:Chapter 11
01:07:19.910 : en:Chapter 12
01:12:58.332 : en:Chapter 13
01:18:02.052 : en:Chapter 14
01:22:23.438 : en:Chapter 15
01:28:52.035 : en:Chapter 16
01:31:59.597 : en:Chapter 17
Свернуть
"Скриншоты"

Изображение
Изображение
Изображение
Изображение
Изображение
Изображение
Изображение
Изображение
Свернуть
Раздача группы:
Изображение
Не в сети
Профиль  
 Добавлено: 2011-11-28 22:37 (спустя 5 дней)
Кинокомментатор
Аватара пользователя
Стаж: 9 лет
Сообщений: 1353
Лайков: 80
зачётная киноша) всё как есть:) продажные копы) алчные люди:) таков мир:) никуда не деться от этого:)
всё живенько и динамично в кино:) мне понравилось;) особо ничего не скажешь) надо смотреть:) а смотреть надо:) русские фильмы не часто бывают хорошими;) 7/10
_________________
Я ВКонтакте
Не в сети
Профиль  
 Добавлено: 2011-12-11 04:51 (спустя 12 дней)
Стаж: 8 лет 11 месяцев
Сообщений: 16
Спасибок: 4
:co_ol:
Не в сети
Профиль  
 Добавлено: 2012-11-02 20:29 (спустя 10 месяцев)
Стаж: 9 лет 4 месяца
Сообщений: 2
Очень хороший фильм!
Не в сети
Профиль  
 Добавлено: 2012-12-16 22:01 (спустя 1 месяц 14 дней)
Аватара пользователя
Стаж: 9 лет 8 месяцев
Сообщений: 761
Спасибок: 1548
Фильм зачётный. Легкий и не бессмысленный.
Не в сети
Профиль  
 Добавлено: 2013-03-03 19:13 (спустя 2 месяца 17 дней)
Аватара пользователя
Стаж: 8 лет
Сообщений: 16
Спасибок: 196
Классный фильм!!!
Не в сети
Профиль  
 Добавлено: 2013-07-26 15:49 (спустя 4 месяца 22 дня)
Стаж: 7 лет 6 месяцев
Сообщений: 33
Спасибок: 3
7 из 10
Не в сети
Профиль  
 Добавлено: 2014-01-21 08:13 (спустя 5 месяцев 25 дней)
Стаж: 7 лет 8 месяцев
Сообщений: 26
помогите скачать
Не в сети
Профиль  
 Добавлено: 2017-08-13 21:22 (спустя 3 года 6 месяцев)
Стаж: 5 лет 5 месяцев
Сообщений: 7
дайте раздачу пожалуйста
Не в сети
Профиль  
Начать новую темуОтветить на тему  [ Сообщений: 9 ] 
Вы не можете начинать темы
Вы не можете отвечать на сообщения
Вы не можете редактировать свои сообщения
Вы не можете удалять свои сообщения