Начать новую темуОтветить на тему  [ Сообщений: 9 ] 
Торрент файл
Размер: 2.18 GB • Зарегистрирован: 4 месяца 24 дня • Статус: Проверено
Скачан: 533 раза • Желающих скачать: 0 • Поблагодарили: 88 раз
 Раздают: 6  |  0 KB/s  ]   Качают: 0  |  0 KB/s  ] 
Сообщения
 Добавлено: 2017-04-27 18:21
Top-releaser
Аватара пользователя
Стаж: 9 лет 6 месяцев
Сообщений: 547
Спасибок: 21738
Лайков: 23
Изображение

Викинг


«Тебе нужно увидеть, чтобы поверить»

Год выпуска: 2016
Страна: Изображение Россия; Дирекция Кино
Жанр: История, драма
Продолжительность: 02:22:13
Перевод: Oригинальное [Лицензия]
Субтитры: Русские форсированные (отдельно)

Режиссёр: Андрей Кравчук

В ролях: Данила Козловский, Светлана Ходченкова, Максим Суханов, Игорь Петренко, Андрей Смоляков, Владимир Епифанцев, Александра Бортич, Кирилл Плетнёв, Александр Устюгов, Ростислав Бершауэр

Описание: Раннее Средневековье. Время тяжелых мечей и темных законов крови. Правящий род в раздоре. Вина за случайную смерть брата легла на Великого Князя. По закону мстить ему должен младший брат — бастард. За отказ убивать он заплатит всем, что у него было, потому что «для мира нужно больше мечей, чем для войны».

Качество: HQRip
Формат: AVI

Видео: Xvid 720x304 23.976fps 1736kbps
Аудио: Dolby AC3 48000Hz 6ch 448kbps
Изображение
MediaInfo

General
Complete name : C:\Users\User\Desktop\Viking.2016.BDRip.2.18Gb\Viking.2016.BDRip.2.18Gb.avi
Format : AVI
Format/Info : Audio Video Interleave
Format profile : OpenDML
File size : 2.18 GiB
Duration : 2h 22mn
Overall bit rate : 2 196 Kbps
Writing application : VirtualDubMod 1.5.10.3 (build 2550/release)
Writing library : VirtualDubMod build 2550/release

Video
ID : 0
Format : MPEG-4 Visual
Format profile : Advanced Simple@L5
Format settings, BVOP : Yes
Format settings, QPel : No
Format settings, GMC : No warppoints
Format settings, Matrix : Custom
Codec ID : XVID
Codec ID/Hint : XviD
Duration : 2h 22mn
Bit rate : 1 736 Kbps
Width : 720 pixels
Height : 304 pixels
Display aspect ratio : 2.35:1
Frame rate : 23.976 fps
Color space : YUV
Chroma subsampling : 4:2:0
Bit depth : 8 bits
Scan type : Progressive
Compression mode : Lossy
Bits/(Pixel*Frame) : 0.331
Stream size : 1.72 GiB (79%)
Writing library : XviD 73

Audio
ID : 1
Format : AC-3
Format/Info : Audio Coding 3
Mode extension : CM (complete main)
Format settings, Endianness : Big
Codec ID : 2000
Duration : 2h 22mn
Bit rate mode : Constant
Bit rate : 448 Kbps
Channel(s) : 6 channels
Channel positions : Front: L C R, Side: L R, LFE
Sampling rate : 48.0 KHz
Bit depth : 16 bits
Compression mode : Lossy
Stream size : 456 MiB (20%)
Alignment : Split accross interleaves
Interleave, duration : 42 ms (1.00 video frame)
Interleave, preload duration : 500 ms


Свернуть
Скриншоты

Изображение
Изображение
Изображение
Изображение
Изображение
Свернуть
_________________
Изображение
Изображение
 vitso нравится это.
Не в сети
Профиль  
 Добавлено: 2017-05-06 20:19 (спустя 9 дней)
Стаж: 8 лет 4 месяца
Сообщений: 18
Лайков: 1
Говно?
Не в сети
Профиль  
 Добавлено: 2017-05-07 15:35 (спустя 19 часов)
Аватара пользователя
Стаж: 8 лет 11 месяцев
Возраст: 29
Сообщений: 1287
Спасибок: 3424
Лайков: 7

Anton1982:

Говно?
Именно :a_g_a:
_________________
Мир - это огромная база знаний со сложным языком запросов, а большинство юзеров пытается обойтись только одним ключевым словом...
Не в сети
Профиль  
 Добавлено: 2017-05-08 14:56 (спустя 23 часа)
Аватара пользователя
Стаж: 9 лет 7 месяцев
Возраст: 37
Сообщений: 923
Спасибок: 938
Лайков: 304
Ну после обзора в badcomedian всё встало на свои места, сумбурность и непонятность множества моментов и персонажей подтвердились.
 LEX123456789, ARXangel и rls0001 нравится это.
Не в сети
Профиль  
 Добавлено: 2017-05-08 16:40 (спустя 1 час 43 минуты)
Стаж: 9 лет 7 месяцев
Сообщений: 350
Спасибок: 245
Лайков: 42
Слушайте, ну честное слово, там невеста с князем общается, как с сельским пареньком, да еще и на людях. За такое отец бы пришиб на месте, не то что сам князь. Да и вообще в те времена бабам слова редко давали. Снято не то не исторично, а просто нелогично.
 vb[fbk нравится это.
Не в сети
Профиль  
 Добавлено: 2017-05-08 23:40 (спустя 7 часов)
Аватара пользователя
Стаж: 3 года 11 месяцев
Сообщений: 15
Лайков: 2
МногоНЕуважаемые русские режиссёры!!!
ПРЕКРАТИТЕ, слышите прекратите, снимать такое ГОВНИЩЕ....
Убогий, тупой, постоянно получающий звездюлей викинг, да ладно..., да за таким чморём, как этот персонаж Данилки, даже дворовые собаки не пойдут, не то что люди. Куча исторических несовпадений и откровенные ляпы.
К сожалению таких актёров и фильмов которые были до американизации России уже не будет, обидно за детей, очень обидно.
Не в сети
Профиль  
 Добавлено: 2017-05-11 09:37 (спустя 2 дня 9 часов)
Top-seeder
Аватара пользователя
Стаж: 8 лет 10 месяцев
Возраст: 29
Сообщений: 110
Лайков: 3
блин прям смотреть после коментов перехотелось. но я рескну. блевать так своим!!!
Не в сети
Профиль  
 Добавлено: 2017-05-11 10:39 (спустя 1 час 2 минуты)
Комментатор всего
Аватара пользователя
Стаж: 9 лет
Возраст: 76
Сообщений: 8254
Спасибок: 819
Лайков: 760

rebisnn:

таких актёров
Данилка норм актер, просто ему не повезло...
_________________
Best Vocal Trance - лучшие хиты всех времен>>>
Не в сети
Профиль  
 Добавлено: 2017-05-18 19:39 (спустя 7 дней)
Аватара пользователя
Стаж: 5 лет 8 месяцев
Возраст: 29
Сообщений: 188
Спасибок: 1094
Лайков: 32

Wanted:

rebisnn:

таких актёров
Данилка норм актер, просто ему не повезло...
Нет это просто бабки, "бабки сука бабки"© Данила Козловский, фильм Духлес. :a_g_a:
_________________
Изображение
Изображение
 DionisNN нравится это.
Не в сети
Профиль  
Начать новую темуОтветить на тему  [ Сообщений: 9 ] 
Вы не можете начинать темы
Вы не можете отвечать на сообщения
Вы не можете редактировать свои сообщения
Вы не можете удалять свои сообщения