Начать новую темуОтветить на тему  [ Сообщений: 2 ] 
Торрент файл
Размер: 3.31 GB • Зарегистрирован: 4 месяца 24 дня • Статус: Проверено
Скачан: 63 раза • Желающих скачать: 0 • Поблагодарили: 15 раз
 Раздают: 0  |  0 KB/s  ]   Качают: 0  |  0 KB/s  ] 
 Полного источника не было 4 часа 
Сообщения
 Добавлено: 2017-04-27 18:49
Top-releaser
Аватара пользователя
Стаж: 9 лет 6 месяцев
Сообщений: 547
Спасибок: 21738
Лайков: 23
Изображение

Викинг


«Тебе нужно увидеть, чтобы поверить»

Год выпуска: 2016
Страна: Изображение Россия; Дирекция Кино
Жанр: История, драма
Продолжительность: 02:22:40
Перевод: Oригинальное [Лицензия]
Субтитры: Русские форсированные

Режиссёр: Андрей Кравчук

В ролях: Данила Козловский, Светлана Ходченкова, Максим Суханов, Игорь Петренко, Андрей Смоляков, Владимир Епифанцев, Александра Бортич, Кирилл Плетнёв, Александр Устюгов, Ростислав Бершауэр

Описание: Раннее Средневековье. Время тяжелых мечей и темных законов крови. Правящий род в раздоре. Вина за случайную смерть брата легла на Великого Князя. По закону мстить ему должен младший брат — бастард. За отказ убивать он заплатит всем, что у него было, потому что «для мира нужно больше мечей, чем для войны».

Качество: HQRip-AVC
Формат: MKV

Видео: MPEG-4 AVC, 1024x426 (2.40:1), 23.976 fps, ~2890 kbps avg, 0.276 bit/pixel
Аудио: Dolby AC3 48000Hz 6ch
Изображение
MediaInfo

General
Unique ID : 219576920683585002201513819414379582955 (0xA530FA06A8536A148DF19B2D048F55EB)
Complete name : C:\Users\User\Desktop\Viking.2016.BDRip.AVC.mkv
Format : Matroska
Format version : Version 2
File size : 3.31 GiB
Duration : 2h 22mn
Overall bit rate : 3 325 Kbps
Movie name : Викинг (2016) from ExKinoRay
Encoded date : UTC 2017-04-27 05:09:41
Writing application : mkvmerge v5.8.0 ('No Sleep / Pillow') built on Sep 2 2012 15:37:04
Writing library : libebml v1.2.3 + libmatroska v1.3.0

Video
ID : 1
Format : AVC
Format/Info : Advanced Video Codec
Format profile : High@L4.1
Format settings, CABAC : Yes
Format settings, ReFrames : 12 frames
Codec ID : V_MPEG4/ISO/AVC
Duration : 2h 22mn
Bit rate : 2 890 Kbps
Width : 1 024 pixels
Height : 426 pixels
Display aspect ratio : 2.40:1
Frame rate mode : Constant
Frame rate : 23.976 fps
Color space : YUV
Chroma subsampling : 4:2:0
Bit depth : 8 bits
Scan type : Progressive
Bits/(Pixel*Frame) : 0.276
Stream size : 2.80 GiB (85%)
Title : Enigma
Writing library : x264 core 144 r2525 40bb568
Encoding settings : cabac=1 / ref=12 / deblock=1:-3:-3 / analyse=0x3:0x113 / me=umh / subme=10 / psy=1 / psy_rd=0.98:0.05 / mixed_ref=1 / me_range=32 / chroma_me=1 / trellis=2 / 8x8dct=1 / cqm=0 / deadzone=21,11 / fast_pskip=1 / chroma_qp_offset=-3 / threads=12 / lookahead_threads=3 / sliced_threads=0 / nr=0 / decimate=0 / interlaced=0 / bluray_compat=0 / constrained_intra=0 / bframes=12 / b_pyramid=2 / b_adapt=2 / b_bias=0 / direct=3 / weightb=1 / open_gop=0 / weightp=2 / keyint=240 / keyint_min=23 / scenecut=40 / intra_refresh=0 / rc_lookahead=40 / rc=2pass / mbtree=0 / bitrate=2890 / ratetol=1.0 / qcomp=0.63 / qpmin=0 / qpmax=51 / qpstep=4 / cplxblur=20.0 / qblur=0.5 / vbv_maxrate=50000 / vbv_bufsize=62500 / nal_hrd=none / filler=0 / ip_ratio=1.40 / pb_ratio=1.30 / aq=1:1.00
Language : English
Default : Yes
Forced : No
Color primaries : BT.709
Transfer characteristics : BT.709
Matrix coefficients : BT.709

Audio
ID : 2
Format : AC-3
Format/Info : Audio Coding 3
Mode extension : CM (complete main)
Format settings, Endianness : Big
Codec ID : A_AC3
Duration : 2h 22mn
Bit rate mode : Constant
Bit rate : 448 Kbps
Channel(s) : 6 channels
Channel positions : Front: L C R, Side: L R, LFE
Sampling rate : 48.0 KHz
Bit depth : 16 bits
Compression mode : Lossy
Stream size : 457 MiB (13%)
Title : Лицензия
Language : Russian
Default : Yes
Forced : No

Text
ID : 3
Format : UTF-8
Codec ID : S_TEXT/UTF8
Codec ID/Info : UTF-8 Plain Text
Title : forced
Language : Russian
Default : Yes
Forced : No

Menu
00:00:00.000 : :Chapter 01
00:14:33.998 : :Chapter 02
00:25:23.980 : :Chapter 03
00:37:35.211 : :Chapter 04
00:48:08.218 : :Chapter 05
00:59:10.046 : :Chapter 06
01:08:41.367 : :Chapter 07
01:19:54.831 : :Chapter 08
01:31:57.720 : :Chapter 09
01:45:39.583 : :Chapter 10
01:58:02.742 : :Chapter 11
02:13:05.102 : :Chapter 12
02:22:13.483 : :Chapter 13


Свернуть
Скриншоты

Изображение
Изображение
Изображение
Изображение
Изображение
Свернуть
_________________
Изображение
Изображение
Не в сети
Профиль  
 Добавлено: 2017-06-18 14:55 (спустя 1 месяц 20 дней)
Аватара пользователя
Стаж: 4 года 5 месяцев
Сообщений: 820
Спасибок: 1865
Лайков: 50
Единственная вещь, которая компенсирует просмотр этой двух часовой мути - это постельная сцена Данила Козловского с Александрой Бортич...
Не в сети
Профиль  
Начать новую темуОтветить на тему  [ Сообщений: 2 ] 
Вы не можете начинать темы
Вы не можете отвечать на сообщения
Вы не можете редактировать свои сообщения
Вы не можете удалять свои сообщения