Начать новую темуОтветить на тему  [ 1 сообщение ] 
Торрент файл
Размер: 2.98 GB • Зарегистрирован: 2 месяца 27 дней • Статус: Проверено
Скачан: 21 раз • Желающих скачать: 0 • Поблагодарили: 16 раз
 Раздают: 1  |  0 KB/s  ]   Качают: 0  |  0 KB/s  ] 
Сообщения
 Добавлено: 2017-06-22 16:22
Top-releaser
Аватара пользователя
Стаж: 9 лет 6 месяцев
Сообщений: 547
Спасибок: 21736
Лайков: 23
Изображение

Урфин Джюс и его деревянные солдаты




Год выпуска: 2016
Страна: Россия / Кинокомпания СТВ, Анимационная студия Мельница
Жанр: Мультфильм, приключения, семейный
Продолжительность: 01:27:22
Перевод: Оригинал [iTunes]

Режиссёр: Владимир Торопчин, Федор Дмитриев, Дарина Шмидт

В ролях: Константин Хабенский, Екатерина Гороховская, Сергей Шнуров, Дмитрий Дюжев, Андрей Лёвин, Юлия Рудина, Сергей Дьячков, Валерий Соловьёв, Валерий Кухарешин, Александр Боярский

Описание: Коварный и злобный Урфин Джюс решил стать повелителем Волшебной страны, захватить Изумрудный город при помощи своих солдат-дуболомов и переименовать его в Урфинград. Он уже готовится праздновать победу, но в дело вмешивается самая обычная девочка Элли, которая оказалась в Волшебной стране в самое подходящее время. Ей очень нужно вернуться домой, но прежде она должна помочь своим друзьям Страшиле, Дровосеку и Льву победить Урфина и его армию.


Качество: WEB-DL 1080р
Формат: MKV

Видео: MPEG4 Video (H264) 1920x804 25fps
Аудио: Dolby AC3 48000Hz 6ch 384kbps - Русский - iTunes

Изображение
MediaInfo

General
Unique ID : 211840058037584205111499506403603284644 (0x9F5EE93F212DD6269F08BABDA04A82A4)
Complete name : C:\Users\User\Desktop\UPf1H.dzh1uC.2O17.O.WEB-DL.1O8Op..mkv
Format : Matroska
Format version : Version 2
File size : 2.98 GiB
Duration : 1 h 27 min
Overall bit rate : 4 888 kb/s
Encoded date : UTC 2017-06-21 20:27:39
Writing application : mkvmerge v8.3.0 ('Over the Horizon') 64bit
Writing library : libebml v1.3.1 + libmatroska v1.4.2

Video
ID : 1
Format : AVC
Format/Info : Advanced Video Codec
Format profile : High@L4
Format settings, CABAC : Yes
Format settings, ReFrames : 5 frames
Codec ID : V_MPEG4/ISO/AVC
Duration : 1 h 27 min
Bit rate : 4 502 kb/s
Width : 1 920 pixels
Height : 804 pixels
Display aspect ratio : 2.40:1
Frame rate mode : Constant
Frame rate : 25.000 FPS
Color space : YUV
Chroma subsampling : 4:2:0
Bit depth : 8 bits
Scan type : Progressive
Bits/(Pixel*Frame) : 0.117
Stream size : 2.75 GiB (92%)
Language : English
Default : Yes
Forced : No
Color range : Limited
Color primaries : BT.709
Transfer characteristics : BT.709
Matrix coefficients : BT.709

Audio
ID : 2
Format : AC-3
Format/Info : Audio Coding 3
Mode extension : CM (complete main)
Format settings, Endianness : Big
Codec ID : A_AC3
Duration : 1 h 27 min
Bit rate mode : Constant
Bit rate : 384 kb/s
Channel(s) : 6 channels
Channel positions : Front: L C R, Side: L R, LFE
Sampling rate : 48.0 kHz
Frame rate : 31.250 FPS (1536 spf)
Bit depth : 16 bits
Compression mode : Lossy
Stream size : 240 MiB (8%)
Language : Russian
Default : Yes
Forced : No

Menu
00:00:00.000 : en:Глава 1
00:09:02.480 : en:Глава 2
00:14:50.880 : en:Глава 3
00:20:25.080 : en:Глава 4
00:25:25.240 : en:Глава 5
00:29:04.640 : en:Глава 6
00:33:38.360 : en:Глава 7
00:38:22.160 : en:Глава 8
00:45:05.880 : en:Глава 9
00:51:37.120 : en:Глава 10
00:56:42.640 : en:Глава 11
01:02:28.200 : en:Глава 12
01:08:13.640 : en:Глава 13
01:13:31.600 : en:Глава 14
01:19:09.320 : en:Глава 15


Свернуть
Скриншоты

Изображение
Изображение
Изображение
Изображение
Изображение
Свернуть
_________________
Изображение
Изображение
Не в сети
Профиль  
Начать новую темуОтветить на тему  [ 1 сообщение ] 
Вы не можете начинать темы
Вы не можете отвечать на сообщения
Вы не можете редактировать свои сообщения
Вы не можете удалять свои сообщения