Начать новую темуОтветить на тему  [ Сообщений: 7 ] 
Торрент файл
Размер: 3.51 GB • Зарегистрирован: 1 год 2 месяца • Статус: Проверено
Скачан: 166 раз • Желающих скачать: 0 • Поблагодарили: 51 раз
 Раздают: 0  |  0 KB/s  ]   Качают: 0  |  0 KB/s  ] 
 Полного источника не было 1 час 23 минуты 
Сообщения
 Добавлено: 2015-04-16 11:26
Аватара пользователя
Стаж: 3 года 11 месяцев
Сообщений: 505
Спасибок: 1131
Лайков: 74
Масяня (эп. 1-124)

Изображение


Год выпуска: 2001
Страна: Россия
Жанр: комедия, мультфильм, короткометражка
Продолжительность: ~05:24:40
Продолжительность всего: 07:50:01
Перевод: Не требуется

Режиссер: Олег Куваев

В ролях: Масяня, Хрюндель, Лохматый, Кот, Околобаха и др.

Описание: Масяня — серия flash-мультфильмов художника Олега Куваева о забавных персонажах студенческого возраста, более известных под своими прозвищами — Масяня, Хрюндель и Лохматый.

раздача обновлена на 05.06.2016
Изображение
Серии
Эпизод 1. Автолюбитель
Эпизод 2. Модем
Эпизод 3. Электричка
Эпизод 4. Телевизор
Эпизод 5. Анекдот
Эпизод 6. Амстердам
Эпизод 7. День Рождения
Эпизод 8. Масяня и Сплин
Эпизод 9. Обломчики
Эпизод 10. Пятница
Эпизод 11. Мороженое
Эпизод 12. В отрыв
Эпизод 13. День радио
Эпизод 14. Как-нибудь
Эпизод 15. Москва
Эпизод 16. Сладкие грёзы
Эпизод 17. Новогодняя сказочка
Эпизод 18. Подарочки
Эпизод 19. Шоу-бизнес
Эпизод 20. Даунлоад
Эпизод 21. Валентинки
Эпизод 22. Экскурсия по Санкт-Петербургу
Эпизод 23. 8 марта
Эпизод 24. Городские ужасы
Эпизод 25. Взаимопонимание полов
Эпизод 26. Колёса
Эпизод 27. Поттер
Эпизод 28. Депресняк
Эпизод 29. На измене
Эпизод 30. Русский панкрок
Эпизод 31. Кукла
Эпизод 32. Деньги, Небо и Машины
Эпизод 33. ТВ-Интро
Эпизод 34. Языковой барьер
Эпизод 35. Розовая кофточка
Эпизод 36. Пуговица Пушкина
Эпизод 37. Два моста
Эпизод 38. Крыса
Эпизод 39. Катаклизм
Эпизод 40. Таблетки на Блюхера
Эпизод 41. Во вне
Эпизод 42. Пого
Эпизод 43. Хомяк
Эпизод 44. Киноавангард
Эпизод 45. Принц Альберт
Эпизод 46. Попсня
Эпизод 47. Эффект Дятла
Эпизод 48. Здоровье
Эпизод 49. Сказка 2003
Эпизод 50. Посленовогодний бред
Эпизод 51. Хабиби
Эпизод 52. Карусель
Эпизод 53. День сурком
Эпизод 54. Общество борьбы с козлами
Эпизод 55. Секс
Эпизод 56. Околобаха
Эпизод 57. Треугольники
Эпизод 58. Флудеры
Эпизод 59. Ляпы на сьемках
Эпизод 60. Гавеный день или Масяня в тумане
Эпизод 61. Мани-мани
Эпизод 62. Искушение Лохматого
Эпизод 63. Анатомический театр
Эпизод 64. Ганди или Ищи Дурака
Эпизод 65. Мануке- полиция Рунета
Эпизод 66. Воробей
Эпизод 67. Судьба Нигилиста или Че
Эпизод 68. Мораторий (Диета)
Эпизод 69. В раю денег не берут
Эпизод 70. Обескураж
Эпизод 71. Боян
Эпизод 72. Ночной эльф
Эпизод 73. Десять дохлых енотов
Эпизод 74. Кузина
Эпизод 75. Новогодний обход 2006
Эпизод 76. Всем лицам
Эпизод 77. Кофе по-масяньски
Эпизод 78. Рашн трафико
Эпизод 79. Лузер
Эпизод 80. Дерево друидов
Эпизод 81. Зеркало
Эпизод 82. Пингвин
Эпизод 83. Нерпа
Эпизод 84. Регтайм 1. Жизнь с котом
Эпизод 85. Регтайм 2. Масяптиц и Хрюндептицепап
Эпизод 86. Регтайм 3. Чернооухий попугай
Эпизод 87. Регтайм 4. О без яна
Эпизод 88. Регтайм 5. Муравьиная оратория
Эпизод 89. Регтайм 6. Джонатан Хрюндельсон
Эпизод 90. Регтайм 7. Бурасяно
Эпизод 91. Регтайм 8. Серенгетти
Эпизод 92. Мотыль
Эпизод 93. Курыцца
Эпизод 94. Морква
Эпизод 95. Груша и Кондрашка
Эпизод 96. Угадай всё
Эпизод 97. Отдача
Эпизод 98. Женские треугольники
Эпизод 99. Аэро треугольники
Эпизод 100. Сюрпризец
Эпизод 101. Трудный способ бросить курить
Эпизод 102. Пицца! Пицца!
Эпизод 103. Жаба
Эпизод 104. Опаньки
Эпизод 105. Будтенате
Эпизод 106. Как сделать мульт
Эпизод 107. Свой Чужой
Эпизод 108. Ядрёный взрыв
Эпизод 109. Нехилый супец
Эпизод 110. Шевелёнка
Эпизод 111. Троллейбус
Эпизод 112. Ктулху и пингвин с пропеллером
Эпизод 113. Человечики
Эпизод 114. Зеленая кикимора
Эпизод 115. Царь@ру
Эпизод 116. Питерское лето
Эпизод 117. Абстиненция
Эпизод 118. Кури, дедушка, нарзан!
Эпизод 119. Пескун в непонятках
Эпизод 120. Добрый мульт с невнятным посылом
Эпизод 121. Будапешт
Эпизод 122. Сублимация
Эпизод 123. Ватрушка
Эпизод 124. Срытая угроза
Эпизод 125. Багдадский банан
Эпизод 126. Скэб (Кейзи Джонс)
Эпизод 127. Традесканция
Свернуть

Качество: DVDRip
Формат: AVI
Видео кодек: XviD
Аудио кодек: MP3
Видео: 640x480, 300-700kbps
Аудио: русский, mp3, 128kbps, joint stereo, 44.1kHz

техинфо
Общее
Полное имя : D:\Мультфильмы\Масяня.DVDRip\Масяня. Эпизод 121. Будапешт.avi
Формат : AVI
Формат/Информация : Audio Video Interleave
Размер файла : 63,0 Мбайт
Продолжительность : 7 м. 24 с.
Общий поток : 1188 Кбит/сек
Программа кодирования : VirtualDubMod 1.5.10.3 | www.virtualdub-fr.org || (build 2550/release)
Библиотека кодирования : VirtualDubMod build 2550/release

Видео
Идентификатор : 0
Формат : MPEG-4 Visual
Профиль формата : Advanced Simple@L5
Параметр BVOP формата : 2
Параметр QPel формата : Нет
Параметр GMC формата : Без точки перехода
Параметр матрицы формата : Default (H.263)
Режим смешивания : Сжатый битовый поток
Идентификатор кодека : XVID
Идентификатор кодека/Подсказка : XviD
Продолжительность : 7 м. 24 с.
Битрейт : 1050 Кбит/сек
Ширина : 640 пикселей
Высота : 480 пикселей
Соотношение сторон : 4:3
Частота кадров : 25,000 кадров/сек
Цветовое пространство : YUV
Субдискретизация насыщенности : 4:2:0
Битовая глубина : 8 бит
Тип развёртки : Прогрессивная
Метод сжатия : С потерями
Бит/(Пиксели*Кадры) : 0.137
Размер потока : 55,7 Мбайт (88%)
Библиотека кодирования : XviD 1.2.1 (UTC 2008-12-04)

Аудио
Идентификатор : 1
Формат : MPEG Audio
Версия формата : Version 1
Профиль формата : Layer 3
Идентификатор кодека : 55
Идентификатор кодека/Подсказка : MP3
Продолжительность : 7 м. 24 с.
Вид битрейта : Постоянный
Битрейт : 128 Кбит/сек
Каналы : 2 канала
Частота : 44,1 КГц
Метод сжатия : С потерями
Размер потока : 6,79 Мбайт (11%)
Выравнивание : Разделение по промежуткам
Продолжительность промежутка : 40 мс. (1,00 видеокадр)
Время предзагрузки промежутка : 500 мс.
Библиотека кодирования : LAME3.99r
Настройки программы : -m s -V 4 -q 2 -lowpass 17 -b 128

Общее
Полное имя : D:МультфильмыМасяня.DVDRipМасяня. Эпизод 122. Сублимация.avi
Формат : AVI
Формат/Информация : Audio Video Interleave
Размер файла : 31,0 Мбайт
Продолжительность : 3 м. 38 с.
Общий поток : 1188 Кбит/сек
Программа кодирования : VirtualDubMod 1.5.10.3 | www.virtualdub-fr.org || (build 2550/release)
Библиотека кодирования : VirtualDubMod build 2550/release

Видео
Идентификатор : 0
Формат : MPEG-4 Visual
Профиль формата : Advanced Simple@L5
Параметр BVOP формата : 2
Параметр QPel формата : Нет
Параметр GMC формата : Без точки перехода
Параметр матрицы формата : Default (H.263)
Идентификатор кодека : XVID
Идентификатор кодека/Подсказка : XviD
Продолжительность : 3 м. 38 с.
Битрейт : 1050 Кбит/сек
Ширина : 640 пикселей
Высота : 480 пикселей
Соотношение сторон : 4:3
Частота кадров : 25,000 кадров/сек
Цветовое пространство : YUV
Субдискретизация насыщенности : 4:2:0
Битовая глубина : 8 бит
Тип развёртки : Прогрессивная
Метод сжатия : С потерями
Бит/(Пиксели*Кадры) : 0.137
Размер потока : 27,4 Мбайт (88%)
Библиотека кодирования : XviD 1.2.1 (UTC 2008-12-04)

Аудио
Идентификатор : 1
Формат : MPEG Audio
Версия формата : Version 1
Профиль формата : Layer 3
Идентификатор кодека : 55
Идентификатор кодека/Подсказка : MP3
Продолжительность : 3 м. 38 с.
Вид битрейта : Постоянный
Битрейт : 128 Кбит/сек
Каналы : 2 канала
Частота : 44,1 КГц
Метод сжатия : С потерями
Размер потока : 3,34 Мбайт (11%)
Выравнивание : Разделение по промежуткам
Продолжительность промежутка : 40 мс. (1,00 видеокадр)
Время предзагрузки промежутка : 500 мс.
Библиотека кодирования : LAME3.99r
Настройки программы : -m s -V 4 -q 2 -lowpass 17 -b 128
Свернуть

Скриншоты
Изображение
Изображение
Изображение
Изображение
Свернуть


Последний раз редактировалось Dagel™ 2016-06-05 12:34, всего редактировалось 3 раз(а).
Не в сети
Профиль  
 Добавлено: 2016-01-17 14:47 (спустя 9 месяцев)
Стаж: 7 лет 7 месяцев
Сообщений: 85
Лайков: 18
Неужели кто-то качает ЭТО...
Не в сети
Профиль  
 Добавлено: 2016-01-17 15:58 (спустя 1 час 11 минут)
Аватара пользователя
Стаж: 3 года 11 месяцев
Сообщений: 505
Спасибок: 1131
Лайков: 74
duzerok прикинь
Скачан: 106 раз •

можно раскрыть смысл, вкладываемый в

duzerok:

ЭТО
?
_________________
чик
болванки
ИзображениеИзображениеИзображениеИзображениеИзображениеИзображениеИзображениеИзображениеИзображениеИзображениеИзображение
Свернуть
Не в сети
Профиль  
 Добавлено: 2016-06-05 12:31 (спустя 4 месяца 18 дней)
Аватара пользователя
Стаж: 3 года 11 месяцев
Сообщений: 505
Спасибок: 1131
Лайков: 74

Раздача обновлена. Добавлены эпизоды

Масяня. Эпизод 125. Багдадский банан
Масяня. Эпизод 126. Скэб (Кейзи Джонс)
Масяня. Эпизод 127. Традесканция
Не в сети
Профиль  
 Добавлено: 2016-06-05 18:50 (спустя 6 часов)
Аватара пользователя
Стаж: 8 лет 10 месяцев
Сообщений: 107
Спасибок: 149
Лайков: 2

duzerok:

Неужели кто-то качает ЭТО...
Тебе не понять, так как ты не того поколения....
_________________
 Dagel™ нравится это.
Не в сети
Профиль  
 Добавлено: 2017-01-26 23:07 (спустя 7 месяцев)
Стаж: 7 лет 3 месяца
Сообщений: 193
Лайков: 2
:a_g_a:
Не в сети
Профиль  
 Добавлено: 2017-07-27 23:00 (спустя 6 месяцев)
Аватара пользователя
Стаж: 8 лет 6 месяцев
Сообщений: 144
Лайков: 41
"Директор? Да пошел ты в жопу, директор!" Вот, собственно все, что вспомнилось.
Не в сети
Профиль  
Начать новую темуОтветить на тему  [ Сообщений: 7 ] 
Вы не можете начинать темы
Вы не можете отвечать на сообщения
Вы не можете редактировать свои сообщения
Вы не можете удалять свои сообщения