Начать новую темуОтветить на тему  [ 1 сообщение ] 
Торрент файл
Размер: 1.53 GB • Зарегистрирован: 3 месяца 2 дня • Статус: Проверено
Скачан: 28 раз • Желающих скачать: 0 • Поблагодарили: 23 раза
 Раздают: 2  |  0 KB/s  ]   Качают: 0  |  0 KB/s  ] 
Сообщения
 Добавлено: 2017-06-22 16:36
Top-releaser
Аватара пользователя
Стаж: 9 лет 6 месяцев
Сообщений: 549
Спасибок: 21753
Лайков: 23
Изображение

Урфин Джюс и его деревянные солдаты




Год выпуска: 2016
Страна: Россия / Кинокомпания СТВ, Анимационная студия Мельница
Жанр: Мультфильм, приключения, семейный
Продолжительность: 01:27:22
Перевод: Оригинал [iTunes]

Режиссёр: Владимир Торопчин, Федор Дмитриев, Дарина Шмидт

В ролях: Константин Хабенский, Екатерина Гороховская, Сергей Шнуров, Дмитрий Дюжев, Андрей Лёвин, Юлия Рудина, Сергей Дьячков, Валерий Соловьёв, Валерий Кухарешин, Александр Боярский

Описание: Коварный и злобный Урфин Джюс решил стать повелителем Волшебной страны, захватить Изумрудный город при помощи своих солдат-дуболомов и переименовать его в Урфинград. Он уже готовится праздновать победу, но в дело вмешивается самая обычная девочка Элли, которая оказалась в Волшебной стране в самое подходящее время. Ей очень нужно вернуться домой, но прежде она должна помочь своим друзьям Страшиле, Дровосеку и Льву победить Урфина и его армию.


Качество: WEB-DLRip-AVC
Формат: MKV

Видео: MPEG-4 AVC, 2120 Kbps, 1024x428 (2.40:1), 0,193 bpp
Аудио: Dolby AC3 48000Hz 6ch 384kbps - Русский - iTunes

Изображение
MediaInfo

General
Unique ID : 227623738202953666420243202248604958338 (0xAB3EBCC2B279387E8DC86129C9FCBE82)
Complete name : C:\Users\User\Desktop\Urfin.2017.O.WEB-DLRip.AVC.mkv
Format : Matroska
Format version : Version 2
File size : 1.53 GiB
Duration : 1 h 27 min
Overall bit rate : 2 504 kb/s
Movie name : Урфин Джюс (2017) from ExKinoRay
Encoded date : UTC 2017-06-22 02:50:50
Writing application : mkvmerge v5.6.0 ('Kenya Kane') built on May 27 2012 16:44:04
Writing library : libebml v1.2.3 + libmatroska v1.3.0

Video
ID : 1
Format : AVC
Format/Info : Advanced Video Codec
Format profile : High@L4.1
Format settings, CABAC : Yes
Format settings, ReFrames : 10 frames
Codec ID : V_MPEG4/ISO/AVC
Duration : 1 h 27 min
Bit rate : 2 120 kb/s
Width : 1 024 pixels
Height : 428 pixels
Display aspect ratio : 2.40:1
Frame rate mode : Constant
Frame rate : 25.000 FPS
Color space : YUV
Chroma subsampling : 4:2:0
Bit depth : 8 bits
Scan type : Progressive
Bits/(Pixel*Frame) : 0.193
Stream size : 1.26 GiB (83%)
Title : ExKinoRay
Writing library : x264 core 144 r2525 40bb568
Encoding settings : cabac=1 / ref=10 / deblock=1:-2:-2 / analyse=0x3:0x113 / me=umh / subme=10 / psy=1 / psy_rd=1.03:0.10 / mixed_ref=1 / me_range=32 / chroma_me=1 / trellis=2 / 8x8dct=1 / cqm=0 / deadzone=21,11 / fast_pskip=1 / chroma_qp_offset=-3 / threads=12 / lookahead_threads=3 / sliced_threads=0 / nr=0 / decimate=0 / interlaced=0 / bluray_compat=0 / constrained_intra=0 / bframes=10 / b_pyramid=2 / b_adapt=2 / b_bias=0 / direct=3 / weightb=1 / open_gop=0 / weightp=2 / keyint=250 / keyint_min=25 / scenecut=40 / intra_refresh=0 / rc_lookahead=40 / rc=2pass / mbtree=0 / bitrate=2120 / ratetol=1.0 / qcomp=0.60 / qpmin=0 / qpmax=51 / qpstep=4 / cplxblur=20.0 / qblur=0.5 / vbv_maxrate=50000 / vbv_bufsize=62500 / nal_hrd=none / filler=0 / ip_ratio=1.40 / pb_ratio=1.30 / aq=1:1.00
Default : Yes
Forced : No
Color range : Limited
Color primaries : BT.709
Transfer characteristics : BT.709
Matrix coefficients : BT.709

Audio
ID : 2
Format : AC-3
Format/Info : Audio Coding 3
Mode extension : CM (complete main)
Format settings, Endianness : Big
Codec ID : A_AC3
Duration : 1 h 27 min
Bit rate mode : Constant
Bit rate : 384 kb/s
Channel(s) : 6 channels
Channel positions : Front: L C R, Side: L R, LFE
Sampling rate : 48.0 kHz
Frame rate : 31.250 FPS (1536 spf)
Bit depth : 16 bits
Compression mode : Lossy
Stream size : 240 MiB (15%)
Language : Russian
Default : Yes
Forced : No

Menu
00:00:00.000 : en:Глава 1
00:09:02.480 : en:Глава 2
00:14:50.880 : en:Глава 3
00:20:25.080 : en:Глава 4
00:25:25.240 : en:Глава 5
00:29:04.640 : en:Глава 6
00:33:38.360 : en:Глава 7
00:38:22.160 : en:Глава 8
00:45:05.880 : en:Глава 9
00:51:37.120 : en:Глава 10
00:56:42.640 : en:Глава 11
01:02:28.200 : en:Глава 12
01:08:13.640 : en:Глава 13
01:13:31.600 : en:Глава 14
01:19:09.320 : en:Глава 15


Свернуть
Скриншоты

Изображение
Изображение
Изображение
Изображение
Изображение
Свернуть
_________________
Изображение
Изображение
Не в сети
Профиль  
Начать новую темуОтветить на тему  [ 1 сообщение ] 
Вы не можете начинать темы
Вы не можете отвечать на сообщения
Вы не можете редактировать свои сообщения
Вы не можете удалять свои сообщения