Начать новую темуОтветить на тему  [ Сообщений: 4 ] 
Торрент файл
Размер: 531.89 MB • Зарегистрирован: 4 года 10 месяцев • Статус: Проверено
Скачан: 236 раз • Желающих скачать: 0 • Поблагодарили: 36 раз
 Раздают: 0  |  0 KB/s  ]   Качают: 0  |  0 KB/s  ] 
 Полного источника не было 1 год 2 месяца 
Сообщения
 Добавлено: 2012-05-28 16:13
Аватара пользователя
Стаж: 7 лет 8 месяцев
Сообщений: 537
Спасибок: 19735
Лайков: 83
Noize MC - Новый Альбом


Изображение

Тип релиза: Альбом (LP)
Жанр: Rap
Год издания: 2012
Страна: Россия
Аудиокодек: FLAC (*.flac)
Тип рипа: tracks+.cue
Битрейт аудио: lossless
Продолжительность: 01:12:31
Наличие сканов в содержимом раздачи: да
Трэклист:
Треклист:
01. Вьетнам
02. ШлакваШаклассика
03. Я Глуп
04. Эгоизм
05. Вселенная Бесконечна?
06. Жадина
07. Yes Future
08. Сам [feat. RasKar]
09. Бассейн
10. ЗАЕ*АЛИСЬ!
11. Похуисты [feat. Anacondaz]
12. Болт [feat. Ляпис Трубецкой]
13. Мы Хотим Танцевать
14. Школотой
15. Танцi! [feat. Воплi Вiдоплясова & 1Shot]
16. Ток [feat. Вахтанг]
17. Брынь-брынь-брынь
18. Друг Подруги Телки Брата
19. Пушкинский Рэп
20. Черное/Белое [feat. Subatomic Sound System & Nomadic Wax]
21. Эдем 14/88

log EAC
CUERipper v2.1.2 Copyright (C) 2008-10 Gregory S. Chudov

EAC extraction logfile from 26. May 2012, 15:29

Noize MC / Новый Альбом

Used drive : ASUS DRW-24B1ST Adapter: 1 ID: 0

Read mode : Secure
Utilize accurate stream : Yes
Defeat audio cache : Yes
Make use of C2 pointers : No

Read offset correction : 6
Overread into Lead-In and Lead-Out : No
Fill up missing offset samples with silence : Yes
Delete leading and trailing silent blocks : No
Null samples used in CRC calculations : Yes
Used interface : Native Win32 interface for Win NT & 2000
Gap handling : Appended to previous track

Used output format : Internal WAV Routines
Sample format : 44.100 Hz; 16 Bit; Stereo


TOC of the extracted CD

Track | Start | Length | Start sector | End sector
---------------------------------------------------------
1 | 0:00.00 | 4:02.08 | 0 | 18157
2 | 4:02.08 | 2:04.46 | 18158 | 27503
3 | 6:06.54 | 3:50.10 | 27504 | 44763
4 | 9:56.64 | 2:44.51 | 44764 | 57114
5 | 12:41.40 | 4:20.42 | 57115 | 76656
6 | 17:02.07 | 2:17.22 | 76657 | 86953
7 | 19:19.29 | 3:09.13 | 86954 | 101141
8 | 22:28.42 | 3:49.42 | 101142 | 118358
9 | 26:18.09 | 3:36.54 | 118359 | 134612
10 | 29:54.63 | 4:20.12 | 134613 | 154124
11 | 34:15.00 | 4:38.57 | 154125 | 175031
12 | 38:53.57 | 3:36.73 | 175032 | 191304
13 | 42:30.55 | 4:44.01 | 191305 | 212605
14 | 47:14.56 | 4:28.06 | 212606 | 232711
15 | 51:42.62 | 3:35.63 | 232712 | 248899
16 | 55:18.50 | 4:15.52 | 248900 | 268076
17 | 59:34.27 | 2:35.68 | 268077 | 279769
18 | 62:10.20 | 1:50.62 | 279770 | 288081
19 | 64:01.07 | 2:30.35 | 288082 | 299366
20 | 66:31.42 | 3:10.70 | 299367 | 313686
21 | 69:42.37 | 2:49.21 | 313687 | 326382


Track 1

Filename C:\Users\DA\Music\Noize MC\2012 - Новый Альбом\01. Вьетнам.wav

Pre-gap length 0:00:02.00

Peak level 100.0 %
Track quality 100.0 %
Test CRC 533739E1
Copy CRC 533739E1
Track not present in AccurateRip database
Copy OK

Track 2

Filename C:\Users\DA\Music\Noize MC\2012 - Новый Альбом\02. ШлакваШаклассика.wav

Peak level 100.0 %
Track quality 100.0 %
Test CRC 40F0FED0
Copy CRC 40F0FED0
Track not present in AccurateRip database
Copy OK

Track 3

Filename C:\Users\DA\Music\Noize MC\2012 - Новый Альбом\03. Я Глуп.wav

Peak level 100.0 %
Track quality 100.0 %
Test CRC F714C5F3
Copy CRC F714C5F3
Track not present in AccurateRip database
Copy OK

Track 4

Filename C:\Users\DA\Music\Noize MC\2012 - Новый Альбом\04. Эгоизм.wav

Peak level 100.0 %
Track quality 100.0 %
Test CRC C22416C6
Copy CRC C22416C6
Track not present in AccurateRip database
Copy OK

Track 5

Filename C:\Users\DA\Music\Noize MC\2012 - Новый Альбом\05. Вселенная Бесконечна_.wav

Peak level 100.0 %
Track quality 100.0 %
Test CRC 87758D7A
Copy CRC 87758D7A
Track not present in AccurateRip database
Copy OK

Track 6

Filename C:\Users\DA\Music\Noize MC\2012 - Новый Альбом\06. Жадина.wav

Peak level 100.0 %
Track quality 100.0 %
Test CRC E542D229
Copy CRC E542D229
Track not present in AccurateRip database
Copy OK

Track 7

Filename C:\Users\DA\Music\Noize MC\2012 - Новый Альбом\07. Yes Future.wav

Peak level 100.0 %
Track quality 100.0 %
Test CRC 67934709
Copy CRC 67934709
Track not present in AccurateRip database
Copy OK

Track 8

Filename C:\Users\DA\Music\Noize MC\2012 - Новый Альбом\08. Сам [feat. RasKar].wav

Peak level 100.0 %
Track quality 100.0 %
Test CRC 8D8BEEE3
Copy CRC 8D8BEEE3
Track not present in AccurateRip database
Copy OK

Track 9

Filename C:\Users\DA\Music\Noize MC\2012 - Новый Альбом\09. Бассейн.wav

Peak level 100.0 %
Track quality 100.0 %
Test CRC 9914A19C
Copy CRC 9914A19C
Track not present in AccurateRip database
Copy OK

Track 10

Filename C:\Users\DA\Music\Noize MC\2012 - Новый Альбом\10. ЗАЕБАЛИСЬ!.wav

Peak level 100.0 %
Track quality 100.0 %
Test CRC FCF35288
Copy CRC FCF35288
Track not present in AccurateRip database
Copy OK

Track 11

Filename C:\Users\DA\Music\Noize MC\2012 - Новый Альбом\11. Похуисты [feat. Anacondaz].wav

Peak level 100.0 %
Track quality 100.0 %
Test CRC BD011264
Copy CRC BD011264
Track not present in AccurateRip database
Copy OK

Track 12

Filename C:\Users\DA\Music\Noize MC\2012 - Новый Альбом\12. Болт [feat. Ляпис Трубецкой].wav

Peak level 100.0 %
Track quality 100.0 %
Test CRC DD129DA2
Copy CRC DD129DA2
Track not present in AccurateRip database
Copy OK

Track 13

Filename C:\Users\DA\Music\Noize MC\2012 - Новый Альбом\13. Мы Хотим Танцевать.wav

Peak level 100.0 %
Track quality 100.0 %
Test CRC 4512FD32
Copy CRC 4512FD32
Track not present in AccurateRip database
Copy OK

Track 14

Filename C:\Users\DA\Music\Noize MC\2012 - Новый Альбом\14. Школотой.wav

Peak level 100.0 %
Track quality 100.0 %
Test CRC 11A2207C
Copy CRC 11A2207C
Track not present in AccurateRip database
Copy OK

Track 15

Filename C:\Users\DA\Music\Noize MC\2012 - Новый Альбом\15. Танцi! [feat. Воплi Вiдоплясова & 1Shot].wav

Peak level 100.0 %
Track quality 100.0 %
Test CRC 046915AF
Copy CRC 046915AF
Track not present in AccurateRip database
Copy OK

Track 16

Filename C:\Users\DA\Music\Noize MC\2012 - Новый Альбом\16. Ток [feat. Вахтанг].wav

Peak level 100.0 %
Track quality 100.0 %
Test CRC D0AA9EF0
Copy CRC D0AA9EF0
Track not present in AccurateRip database
Copy OK

Track 17

Filename C:\Users\DA\Music\Noize MC\2012 - Новый Альбом\17. Брынь-брынь-брынь.wav

Peak level 100.0 %
Track quality 100.0 %
Test CRC ED3BECB4
Copy CRC ED3BECB4
Track not present in AccurateRip database
Copy OK

Track 18

Filename C:\Users\DA\Music\Noize MC\2012 - Новый Альбом\18. Друг Подруги Телки Брата.wav

Peak level 100.0 %
Track quality 100.0 %
Test CRC F325F6A1
Copy CRC F325F6A1
Track not present in AccurateRip database
Copy OK

Track 19

Filename C:\Users\DA\Music\Noize MC\2012 - Новый Альбом\19. Пушкинский Рэп.wav

Peak level 100.0 %
Track quality 100.0 %
Test CRC AFEAD623
Copy CRC AFEAD623
Track not present in AccurateRip database
Copy OK

Track 20

Filename C:\Users\DA\Music\Noize MC\2012 - Новый Альбом\20. Черное_Белое [feat. Subatomic Sound System & Nomadic Wax].wav

Peak level 100.0 %
Track quality 100.0 %
Test CRC D5AC0112
Copy CRC D5AC0112
Track not present in AccurateRip database
Copy OK

Track 21

Filename C:\Users\DA\Music\Noize MC\2012 - Новый Альбом\21. Эдем 14_88.wav

Peak level 100.0 %
Track quality 100.0 %
Test CRC 096A55C3
Copy CRC 096A55C3
Track not present in AccurateRip database
Copy OK


None of the tracks are present in the AccurateRip database

No errors occurred

End of status report
Свернуть
Не в сети
Профиль  
 Добавлено: 2012-10-25 00:28 (спустя 4 месяца 27 дней)
Аватара пользователя
Стаж: 8 лет 4 месяца
Возраст: 33
Сообщений: 202
Спасибок: 545
надо послушать :par_don:
Не в сети
Профиль  
 Добавлено: 2013-01-17 18:41 (спустя 2 месяца 23 дня)
Аватара пользователя
Стаж: 4 года 7 месяцев
Возраст: 23
Сообщений: 8
ребята выложите кто нибудь дискографию
_________________
Изображение
Изображение
Не в сети
Профиль  
 Добавлено: 2014-09-06 17:04 (спустя 1 год 7 месяцев)
Аватара пользователя
Стаж: 8 лет 8 месяцев
Возраст: 28
Сообщений: 125
Лайков: 1
помогите скачать!!!
Не в сети
Профиль  
Начать новую темуОтветить на тему  [ Сообщений: 4 ] 
Вы не можете начинать темы
Вы не можете отвечать на сообщения
Вы не можете редактировать свои сообщения
Вы не можете удалять свои сообщения