Начать новую темуОтветить на тему  [ 1 сообщение ] 
Торрент файл
Размер: 783.66 MB • Зарегистрирован: 7 месяцев • Статус: Проверено
Скачан: 10 раз • Желающих скачать: 0 • Поблагодарили: 2 раза
 Раздают: 0  |  0 KB/s  ]   Качают: 0  |  0 KB/s  ] 
 Полного источника не было 1 месяц 6 дней 
Сообщения
 Добавлено: 2016-12-04 10:48
Аватара пользователя
Стаж: 9 лет 6 месяцев
Сообщений: 72
Спасибок: 21
ДДТ / Иначе + P.S.


Изображение


Тип релиза: Альбом (LP)
Страна: Россия
Лейбл: NAVIGATOR
Год выхода: 2011
Жанр: Rock
Формат: FLAC (image + .cue)
Битрейт: lossless
Продолжительность: 1:06:59 + 50:08
Полиграфия: Полная

Треклист:
CD1 (Иначе): (01:06:56)

01. Noise №1 (1:31)
02. Родившимся этой ночью (5:25)
03. Солнечный свет (4:03)
04. Эй, ты, кто ты (5:48)
05. Пустота (4:30)
06. Кризис (4:22)
07. Проводник (3:49)
08. Напиши мне, напиши (5:43)
09. Встреча (5:47)
10. За тобой пришли (4:06)
11. Новая Россия (2:42)
12. Noise №2 (1:18)
13. Песня о времени (5:35)
14. Когда ты была здесь (3:34)
15. Песня о свободе (4:17)
16. Юго-Западный ветер (4:25)

CD2 (P.S.): (00:50:08)
01. Серый Боров (5:26)
02. Моногород (3:45)
03. Басня о власти (3:33)
04. Больница (4:12)
05. Песня расстроенного человека (6:12)
06. Повелитель мух (3:45)
07. Made In China (5:01)
08. Нежность (3:56)
09. Где мы летим (4:22)
10. Северный гранит (4:20)
11. Рок-н-рольная муза (3:15)
12. Хич (2:21)

Отчет EAC
Exact Audio Copy V1.1 from 23. June 2015

Отчёт EAC об извлечении, выполненном 29. ноября 2016, 22:09

ДДТ / Иначе

Дисковод: Optiarc DVD RW AD-7263S Adapter: 1 ID: 0

Режим чтения : Достоверность
Использование точного потока : Да
Отключение кэша аудио : Да
Использование указателей C2 : Нет

Коррекция смещения при чтении : 48
Способность читать области Lead-in и Lead-out : Нет
Заполнение пропущенных сэмплов тишиной : Да
Удаление блоков с тишиной в начале и конце : Нет
При вычислениях CRC использовались нулевые сэмплы : Да
Интерфейс : Встроенный Win32-интерфейс для Win NT/2000

Выходной формат : Внутренние WAV-операции
Формат сэмплов : 44.100 Гц; 16 бит; стерео


TOC извлечённого CD

Трек | Старт | Длительность | Начальный сектор | Конечный сектор
---------------------------------------------------------------------
1 | 0:00.00 | 1:31.12 | 0 | 6836
2 | 1:31.12 | 5:25.37 | 6837 | 31248
3 | 6:56.49 | 4:02.40 | 31249 | 49438
4 | 10:59.14 | 5:47.59 | 49439 | 75522
5 | 16:46.73 | 4:30.22 | 75523 | 95794
6 | 21:17.20 | 4:24.28 | 95795 | 115622
7 | 25:41.48 | 3:48.49 | 115623 | 132771
8 | 29:30.22 | 5:43.13 | 132772 | 158509
9 | 35:13.35 | 5:47.11 | 158510 | 184545
10 | 41:00.46 | 4:05.60 | 184546 | 202980
11 | 45:06.31 | 2:43.33 | 202981 | 215238
12 | 47:49.64 | 1:17.45 | 215239 | 221058
13 | 49:07.34 | 5:35.26 | 221059 | 246209
14 | 54:42.60 | 3:34.30 | 246210 | 262289
15 | 58:17.15 | 4:17.32 | 262290 | 281596
16 | 62:34.47 | 4:24.41 | 281597 | 301437


Характеристики диапазона извлечения и сообщения об ошибках

Выбранный диапазон

Имя файла F:\ДДТ - Иначе.wav

Пиковый уровень 99.8 %
Скорость извлечения 4.2 X
Качество диапазона 99.9 %
CRC копии FED34171
Копирование... OK

Ошибок не произошло

Конец отчёта

------------------------------------------------------------

Exact Audio Copy V1.1 from 23. June 2015

Отчёт EAC об извлечении, выполненном 29. ноября 2016, 22:09

ДДТ / Иначе

Дисковод: Optiarc DVD RW AD-7263S Adapter: 1 ID: 0

Режим чтения : Достоверность
Использование точного потока : Да
Отключение кэша аудио : Да
Использование указателей C2 : Нет

Коррекция смещения при чтении : 48
Способность читать области Lead-in и Lead-out : Нет
Заполнение пропущенных сэмплов тишиной : Да
Удаление блоков с тишиной в начале и конце : Нет
При вычислениях CRC использовались нулевые сэмплы : Да
Интерфейс : Встроенный Win32-интерфейс для Win NT/2000

Выходной формат : Внутренние WAV-операции
Формат сэмплов : 44.100 Гц; 16 бит; стерео


TOC извлечённого CD

Трек | Старт | Длительность | Начальный сектор | Конечный сектор
---------------------------------------------------------------------
1 | 0:00.00 | 1:31.12 | 0 | 6836
2 | 1:31.12 | 5:25.37 | 6837 | 31248
3 | 6:56.49 | 4:02.40 | 31249 | 49438
4 | 10:59.14 | 5:47.59 | 49439 | 75522
5 | 16:46.73 | 4:30.22 | 75523 | 95794
6 | 21:17.20 | 4:24.28 | 95795 | 115622
7 | 25:41.48 | 3:48.49 | 115623 | 132771
8 | 29:30.22 | 5:43.13 | 132772 | 158509
9 | 35:13.35 | 5:47.11 | 158510 | 184545
10 | 41:00.46 | 4:05.60 | 184546 | 202980
11 | 45:06.31 | 2:43.33 | 202981 | 215238
12 | 47:49.64 | 1:17.45 | 215239 | 221058
13 | 49:07.34 | 5:35.26 | 221059 | 246209
14 | 54:42.60 | 3:34.30 | 246210 | 262289
15 | 58:17.15 | 4:17.32 | 262290 | 281596
16 | 62:34.47 | 4:24.41 | 281597 | 301437


Характеристики диапазона извлечения и сообщения об ошибках

Выбранный диапазон

Имя файла F:\ДДТ - Иначе.wav

Пиковый уровень 99.8 %
Скорость извлечения 4.2 X
Качество диапазона 99.9 %
CRC копии FED34171
Копирование... OK

Ошибок не произошло

Конец отчёта
=====================================
Exact Audio Copy V1.1 from 23. June 2015

Отчёт EAC об извлечении, выполненном 30. ноября 2016, 8:52

ДДТ / P.S.

Дисковод: Optiarc DVD RW AD-7263S Adapter: 1 ID: 0

Режим чтения : Достоверность
Использование точного потока : Да
Отключение кэша аудио : Да
Использование указателей C2 : Нет

Коррекция смещения при чтении : 48
Способность читать области Lead-in и Lead-out : Нет
Заполнение пропущенных сэмплов тишиной : Да
Удаление блоков с тишиной в начале и конце : Нет
При вычислениях CRC использовались нулевые сэмплы : Да
Интерфейс : Встроенный Win32-интерфейс для Win NT/2000

Выходной формат : Внутренние WAV-операции
Формат сэмплов : 44.100 Гц; 16 бит; стерео


TOC извлечённого CD

Трек | Старт | Длительность | Начальный сектор | Конечный сектор
---------------------------------------------------------------------
1 | 0:00.00 | 5:25.57 | 0 | 24431
2 | 5:25.57 | 3:44.46 | 24432 | 41277
3 | 9:10.28 | 3:33.18 | 41278 | 57270
4 | 12:43.46 | 4:11.38 | 57271 | 76133
5 | 16:55.09 | 6:12.21 | 76134 | 104054
6 | 23:07.30 | 3:45.06 | 104055 | 120935
7 | 26:52.36 | 5:00.70 | 120936 | 143505
8 | 31:53.31 | 3:56.31 | 143506 | 161236
9 | 35:49.62 | 4:21.68 | 161237 | 180879
10 | 40:11.55 | 4:20.03 | 180880 | 200382
11 | 44:31.58 | 3:14.59 | 200383 | 214991
12 | 47:46.42 | 2:21.20 | 214992 | 225586


Характеристики диапазона извлечения и сообщения об ошибках

Выбранный диапазон

Имя файла F:\ДДТ - P.S..wav

Пиковый уровень 99.8 %
Скорость извлечения 3.9 X
Качество диапазона 100.0 %
CRC копии DBCC53E1
Копирование... OK

Ошибок не произошло

Конец отчёта

------------------------------------------------------------

Exact Audio Copy V1.1 from 23. June 2015

Отчёт EAC об извлечении, выполненном 30. ноября 2016, 8:52

ДДТ / P.S.

Дисковод: Optiarc DVD RW AD-7263S Adapter: 1 ID: 0

Режим чтения : Достоверность
Использование точного потока : Да
Отключение кэша аудио : Да
Использование указателей C2 : Нет

Коррекция смещения при чтении : 48
Способность читать области Lead-in и Lead-out : Нет
Заполнение пропущенных сэмплов тишиной : Да
Удаление блоков с тишиной в начале и конце : Нет
При вычислениях CRC использовались нулевые сэмплы : Да
Интерфейс : Встроенный Win32-интерфейс для Win NT/2000

Выходной формат : Внутренние WAV-операции
Формат сэмплов : 44.100 Гц; 16 бит; стерео


TOC извлечённого CD

Трек | Старт | Длительность | Начальный сектор | Конечный сектор
---------------------------------------------------------------------
1 | 0:00.00 | 5:25.57 | 0 | 24431
2 | 5:25.57 | 3:44.46 | 24432 | 41277
3 | 9:10.28 | 3:33.18 | 41278 | 57270
4 | 12:43.46 | 4:11.38 | 57271 | 76133
5 | 16:55.09 | 6:12.21 | 76134 | 104054
6 | 23:07.30 | 3:45.06 | 104055 | 120935
7 | 26:52.36 | 5:00.70 | 120936 | 143505
8 | 31:53.31 | 3:56.31 | 143506 | 161236
9 | 35:49.62 | 4:21.68 | 161237 | 180879
10 | 40:11.55 | 4:20.03 | 180880 | 200382
11 | 44:31.58 | 3:14.59 | 200383 | 214991
12 | 47:46.42 | 2:21.20 | 214992 | 225586


Характеристики диапазона извлечения и сообщения об ошибках

Выбранный диапазон

Имя файла F:\ДДТ - P.S..wav

Пиковый уровень 99.8 %
Скорость извлечения 3.9 X
Качество диапазона 100.0 %
CRC копии DBCC53E1
Копирование... OK

Ошибок не произошло

Конец отчёта
Свернуть
CUE
REM GENRE Rock
REM DATE 2011
REM DISCID F30FB310
REM COMMENT "ExactAudioCopy v1.1"
PERFORMER "ДДТ"
TITLE "Иначе"
FILE "ДДТ - Иначе.wav" WAVE
TRACK 01 AUDIO
TITLE "Noise №1"
PERFORMER "ДДТ"
INDEX 01 00:00:00
TRACK 02 AUDIO
TITLE "Родившимся этой ночью"
PERFORMER "ДДТ"
INDEX 01 01:31:12
TRACK 03 AUDIO
TITLE "Солнечный свет"
PERFORMER "ДДТ"
INDEX 00 06:56:38
INDEX 01 06:56:49
TRACK 04 AUDIO
TITLE "Эй, ты, кто ты"
PERFORMER "ДДТ"
INDEX 01 10:59:14
TRACK 05 AUDIO
TITLE "Пустота"
PERFORMER "ДДТ"
INDEX 01 16:46:73
TRACK 06 AUDIO
TITLE "Кризис"
PERFORMER "ДДТ"
INDEX 01 21:17:20
TRACK 07 AUDIO
TITLE "Проводник"
PERFORMER "ДДТ"
INDEX 01 25:41:48
TRACK 08 AUDIO
TITLE "Напиши мне, напиши"
PERFORMER "ДДТ"
INDEX 00 29:28:72
INDEX 01 29:30:22
TRACK 09 AUDIO
TITLE "Встреча"
PERFORMER "ДДТ"
INDEX 00 35:13:15
INDEX 01 35:13:35
TRACK 10 AUDIO
TITLE "За тобой пришли"
PERFORMER "ДДТ"
INDEX 00 40:59:56
INDEX 01 41:00:46
TRACK 11 AUDIO
TITLE "Новая Россия"
PERFORMER "ДДТ"
INDEX 01 45:06:31
TRACK 12 AUDIO
TITLE "Noise №2"
PERFORMER "ДДТ"
INDEX 00 47:49:07
INDEX 01 47:49:64
TRACK 13 AUDIO
TITLE "Песня о времени"
PERFORMER "ДДТ"
INDEX 01 49:07:34
TRACK 14 AUDIO
TITLE "Когда ты была здесь"
PERFORMER "ДДТ"
INDEX 00 54:42:56
INDEX 01 54:42:60
TRACK 15 AUDIO
TITLE "Песня о свободе"
PERFORMER "ДДТ"
INDEX 00 58:17:05
INDEX 01 58:17:15
TRACK 16 AUDIO
TITLE "Юго-Западный ветер"
PERFORMER "ДДТ"
INDEX 00 62:34:36
INDEX 01 62:34:47
===========================
REM DISCID A30BBF0C
PERFORMER "ДДТ"
TITLE "P.S."
REM DATE 2011
FILE "ДДТ - P.S..wav" WAVE
TRACK 01 AUDIO
TITLE "Серый Боров"
PERFORMER "ДДТ"
INDEX 01 00:00:00
TRACK 02 AUDIO
TITLE "Моногород"
PERFORMER "ДДТ"
INDEX 01 05:25:57
TRACK 03 AUDIO
TITLE "Басня о власти"
PERFORMER "ДДТ"
INDEX 01 09:10:28
TRACK 04 AUDIO
TITLE "Больница"
PERFORMER "ДДТ"
INDEX 00 12:42:43
INDEX 01 12:43:46
TRACK 05 AUDIO
TITLE "Песня расстроенного человека"
PERFORMER "ДДТ"
INDEX 00 16:54:22
INDEX 01 16:55:09
TRACK 06 AUDIO
TITLE "Повелитель мух"
PERFORMER "ДДТ"
INDEX 00 23:07:13
INDEX 01 23:07:30
TRACK 07 AUDIO
TITLE "Made In China"
PERFORMER "ДДТ"
INDEX 00 26:51:10
INDEX 01 26:52:36
TRACK 08 AUDIO
TITLE "Нежность"
PERFORMER "ДДТ"
INDEX 00 31:52:65
INDEX 01 31:53:31
TRACK 09 AUDIO
TITLE "Где мы летим"
PERFORMER "ДДТ"
INDEX 00 35:49:03
INDEX 01 35:49:62
TRACK 10 AUDIO
TITLE "Северный гранит"
PERFORMER "ДДТ"
INDEX 01 40:11:55
TRACK 11 AUDIO
TITLE "Рок-н-рольная муза"
PERFORMER "ДДТ"
INDEX 01 44:31:58
TRACK 12 AUDIO
TITLE "Хич"
PERFORMER "ДДТ"
INDEX 00 47:46:06
INDEX 01 47:46:42
Свернуть
Не в сети
Профиль  
Начать новую темуОтветить на тему  [ 1 сообщение ] 
Вы не можете начинать темы
Вы не можете отвечать на сообщения
Вы не можете редактировать свои сообщения
Вы не можете удалять свои сообщения