Начать новую темуОтветить на тему  [ Сообщений: 2 ] 
Торрент файл
Размер: 336.84 MB • Зарегистрирован: 7 лет • Статус: Проверено
Скачан: 62 раза • Желающих скачать: 0 • Поблагодарили: 16 раз
 Раздают: 0  |  0 KB/s  ]   Качают: 0  |  0 KB/s  ] 
 Полного источника не было 3 года 
Сообщения
 Добавлено: 2010-03-14 11:51
Перемодератор
Аватара пользователя
Стаж: 9 лет 1 месяц
Возраст: 35
Сообщений: 4247
Спасибок: 11379
Лайков: 94
Океан Ельзи - Dolce Vita

Изображение

Исполнитель: Океан Ельзи
Жанр: Rock
Год выпуска диска: 2010
Страна: Moon Records (Ukraine)
Аудио кодек: FLAC
Формат: image+.cue+scan
Битрейт аудио: lossless
Продолжительность: 00:56:45
Трэклист:
01. Онлайн [3:52]
02. Небо над Дніпром [4:17]
03. Надя [3:56]
04. Я так хочу... [4:42]
05. На лінії вогню [3:01]
06. Більше для нас [3:30]
07. Ордени [3:49]
08. З тобою [3:05]
09. Ще один день [4:13]
10. Королева [4:17]
11. 18 хвилин [4:24]
12. Компас [4:28]
13. Dolce Vita [5:21]
14. Ой, чий там кінь стоїть (народна пісня) [03:49]
"Отчёт EAC"
Exact Audio Copy V0.99 prebeta 5 from 4. May 2009

Отчёт EAC об извлечении, выполненном 10. марта 2010, 16:30
Океан Ельзи / Dolce Vita

Дисковод: PIONEER DVD-RW DVR-111D Adapter: 0 ID: 0

Режим чтения : Достоверность
Использование точного потока : Да
Отключение кэша аудио : Да
Использование указателей C2 : Нет

Коррекция смещения при чтении : 48
Способность читать области Lead-in и Lead-out : Нет
Заполнение пропущенных сэмплов тишиной : Да
Удаление блоков с тишиной в начале и конце : Нет
При вычислениях CRC использовались нулевые сэмплы : Да
Интерфейс : Встроенный Win32-интерфейс для Win NT/2000

Выходной формат : Внутренние WAV-операции
Формат сэмплов : 44.100 Гц; 16 бит; стерео

TOC извлечённого CD

Трек | Старт | Длительность | Начальный сектор | Конечный сектор
---------------------------------------------------------------------
1 | 0:00.00 | 3:52.28 | 0 | 17427
2 | 3:52.28 | 4:16.71 | 17428 | 36698
3 | 8:09.24 | 3:56.20 | 36699 | 54418
4 | 12:05.44 | 4:41.53 | 54419 | 75546
5 | 16:47.22 | 3:01.05 | 75547 | 89126
6 | 19:48.27 | 3:30.07 | 89127 | 104883
7 | 23:18.34 | 3:49.07 | 104884 | 122065
8 | 27:07.41 | 3:05.22 | 122066 | 135962
9 | 30:12.63 | 4:13.03 | 135963 | 154940
10 | 34:25.66 | 4:17.26 | 154941 | 174241
11 | 38:43.17 | 4:23.70 | 174242 | 194036
12 | 43:07.12 | 4:28.16 | 194037 | 214152
13 | 47:35.28 | 5:20.55 | 214153 | 238207
14 | 52:56.08 | 3:49.53 | 238208 | 255435

Характеристики диапазона извлечения и сообщения об ошибках
Выбранный диапазон

Имя файла C:\Documents and Settings\Владелец\Рабочий стол\Океан Ельзи - Dolce Vita (2010) (Flac)\Океан Ельзи - Dolce Vita.wav

Пиковый уровень 98.8 %
Качество диапазона 100.0 %
CRC теста 0D01A226
CRC копии 0D01A226
Копирование... OK

Ошибок не произошло

AccurateRip: сводка

Трек 1 нет в базе данных
Трек 2 нет в базе данных
Трек 3 нет в базе данных
Трек 4 нет в базе данных
Трек 5 нет в базе данных
Трек 6 нет в базе данных
Трек 7 нет в базе данных
Трек 8 нет в базе данных
Трек 9 нет в базе данных
Трек 10 нет в базе данных
Трек 11 нет в базе данных
Трек 12 нет в базе данных
Трек 13 нет в базе данных
Трек 14 нет в базе данных
Ни одного трека нет в базе AccurateRip

Конец отчёта
Свернуть
_________________
есть время объяснить
а нет... показалось
Свернуть
Не в сети
Профиль  
Начать новую темуОтветить на тему  [ Сообщений: 2 ] 
Вы не можете начинать темы
Вы не можете отвечать на сообщения
Вы не можете редактировать свои сообщения
Вы не можете удалять свои сообщения