Начать новую темуОтветить на тему  [ Сообщений: 9 ] 
Торрент файл
Размер: 489.88 MB • Зарегистрирован: 8 лет 1 месяц • Статус: Проверено
Скачан: 306 раз • Желающих скачать: 0 • Поблагодарили: 81 раз
 Раздают: 0  |  0 KB/s  ]   Качают: 0  |  0 KB/s  ] 
 Полного источника не было 6 дней 
Сообщения
 Добавлено: 2009-07-22 00:02
Аватара пользователя
Стаж: 8 лет 7 месяцев
Сообщений: 25
Спасибок: 187
Жанна Агузарова - The best (1999)

Изображение


Страна: Россия
Жанр: (Rock/PopMusic)
Год выпуска: 1999
Формат: APE (image + .cue)
Битрейт аудио: lossless
Продолжительность: 1:13:07
Трэклист:
01. Ты, только ты (3:53)
02. А снег идет (2:20)
03. Верю я (3:03)
04. Свободная земля (6:16)
05. Черный кот (2:53)
06. В городе моем (4:21)
07. Зимушка (3:15)
08. Будь со мной (2:51)
09. Счастливая любовь (5:01)
10. Чудесная страна (3:14)
11. Орел (2:59)
12. Желтые ботинки (3:30)
13. Вернись ко мне (4:13)
14. В чем дело (3:23)
15. Звезда (3:19)
16. Один поцелуй моряка (4:37)
17. Ленинградский рок-н-ролл (2:20)
18. Мужчины в этой жизни (4:37)
19. Старый отель (3:58)
20. Hali bob (3:05)
"Отчёт EAC"
Exact Audio Copy V0.99 prebeta 4 from 23. January 2008

Отчёт EAC об извлечении, выполненном 11. марта 2008, 12:24

Жанна Агузарова / The Best

Дисковод: LITE-ON DVDRW LH-20A1P Adapter: 3 ID: 0

Режим чтения : Достоверность
Использование точного потока : Да
Отключение кэша аудио : Да
Использование указателей C2 : Нет

Коррекция смещения при чтении : 6
Способность читать области Lead-in и Lead-out : Нет
Заполнение пропущенных сэмплов тишиной : Да
Удаление блоков с тишиной в начале и конце : Нет
При вычислениях CRC использовались нулевые сэмплы : Да
Интерфейс : Встроенный Win32-интерфейс для Win NT/2000

Выходной формат : Внутренние WAV-операции
Формат сэмплов : 44.100 Гц; 16 бит; стерео

TOC извлечённого CD

Трек | Старт | Длительность | Начальный сектор | Конечный сектор
---------------------------------------------------------------------
1 | 0:00.00 | 3:53.33 | 0 | 17507
2 | 3:53.33 | 2:19.68 | 17508 | 28000
3 | 6:13.26 | 3:03.28 | 28001 | 41753
4 | 9:16.54 | 6:15.46 | 41754 | 69924
5 | 15:32.25 | 2:52.45 | 69925 | 82869
6 | 18:24.70 | 4:20.58 | 82870 | 102427
7 | 22:45.53 | 3:14.51 | 102428 | 117028
8 | 26:00.29 | 2:51.03 | 117029 | 129856
9 | 28:51.32 | 5:01.13 | 129857 | 152444
10 | 33:52.45 | 3:13.72 | 152445 | 166991
11 | 37:06.42 | 2:59.09 | 166992 | 180425
12 | 40:05.51 | 3:30.17 | 180426 | 196192
13 | 43:35.68 | 4:12.55 | 196193 | 215147
14 | 47:48.48 | 3:22.66 | 215148 | 230363
15 | 51:11.39 | 3:19.04 | 230364 | 245292
16 | 54:30.43 | 4:37.17 | 245293 | 266084
17 | 59:07.60 | 2:20.05 | 266085 | 276589
18 | 61:27.65 | 4:36.42 | 276590 | 297331
19 | 66:04.32 | 3:57.46 | 297332 | 315152
20 | 70:02.03 | 3:05.08 | 315153 | 329035

Характеристики диапазона извлечения и сообщения об ошибках

Выбранный диапазон

Имя файла G:\Music\Агузарова\The best (1999)\Жанна Агузарова - The Best.wav

Пиковый уровень 100.0 %
Качество диапазона 100.0 %
CRC копии 560BE42C
Копирование... OK

Ошибок не произошло

Конец отчёта
Свернуть


Последний раз редактировалось dede07 2015-01-31 21:45, всего редактировалось 5 раз(а).
Не в сети
Профиль  
 Добавлено: 2009-07-22 13:55 (спустя 13 часов)
Аватара пользователя
Стаж: 8 лет 7 месяцев
Сообщений: 37
Спасибок: 23
давно ищу эту фекалию
_________________
" На территории России законно всё, что направлено во благо русского народа".
Не в сети
Профиль  
 Добавлено: 2009-07-22 15:48 (спустя 1 час 53 минуты)
Аватара пользователя
Стаж: 8 лет 7 месяцев
Сообщений: 25
Спасибок: 187
и наконец-то нашел *KISSING*
_________________
пи...дец
Не в сети
Профиль  
 Добавлено: 2009-10-19 18:17 (спустя 2 месяца 28 дней)
Аватара пользователя
Стаж: 7 лет 10 месяцев
Сообщений: 13
*IN LOVE* Обожаю её!!!!!
Не в сети
Профиль  
 Добавлено: 2010-04-25 17:55 (спустя 6 месяцев)
Аватара пользователя
Стаж: 7 лет 9 месяцев
Сообщений: 23
А как песни ее открыть?...
Не в сети
Профиль  
 Добавлено: 2010-04-25 18:08 (спустя 13 минут)
Всегда с нами
Аватара пользователя
Стаж: 9 лет 3 месяца
Сообщений: 969
Спасибок: 1204
Лайков: 7
kressh
В проигрыватель бросаешь файл с расширением .cue . Плеер должен поддерживать формат ape. Варианты - Foobar, AIMP, JetAudio, KMPlayer и другие при наличии соответствующего плагина.
_________________
Изображение
Не в сети
Профиль  
 Добавлено: 2010-07-17 09:17 (спустя 2 месяца 21 день)
Стаж: 9 лет 3 месяца
Сообщений: 137
Спасибок: 28
Лайков: 2
О Жанна обажаю ее голос, но не ее сегодняшную внешность(((
Не в сети
Профиль  
 Добавлено: 2015-01-30 23:46 (спустя 4 года 6 месяцев)
Top-seeder
Аватара пользователя
Стаж: 7 лет
Сообщений: 532
Спасибок: 660
Лайков: 6
автору, спасибо Изображение
качество, конечно :( Россия 1999 - все объясняет
Не в сети
Профиль  
 Добавлено: 2017-04-14 19:48 (спустя 2 года 2 месяца)
Аватара пользователя
Стаж: 9 лет 6 месяцев
Сообщений: 184
Лайков: 23
единственная у нас певица . :bra_vo:
Не в сети
Профиль  
Начать новую темуОтветить на тему  [ Сообщений: 9 ] 
Вы не можете начинать темы
Вы не можете отвечать на сообщения
Вы не можете редактировать свои сообщения
Вы не можете удалять свои сообщения