Начать новую темуОтветить на тему  [ Сообщений: 2 ] 
Торрент файл
Размер: 562.31 MB • Зарегистрирован: 3 года 4 месяца • Статус: Проверено
Скачан: 1 раз • Желающих скачать: 0 • Поблагодарили: 0 раз
 Раздают: 0  |  0 KB/s  ]   Качают: 0  |  0 KB/s  ] 
 Полного источника не было 2 года 11 месяцев 
Сообщения
 Добавлено: 2014-04-16 20:02
Аватара пользователя
Стаж: 8 лет 7 месяцев
Возраст: 22
Сообщений: 476
Спасибок: 549
Лайков: 4
Изображение


Изображение


Изображение
Изображение Год выпуска: c 08.04.2014
Изображение Страна: Япония Изображение
Изображение Жанр: комедия, романтика
Изображение Студия: Изображение
Изображение Режиссёр: Фурута Такэси
Изображение Снято по манге: Mangaka-san to Assistant-san to
Изображение Автор оригинала: Хироюки
Изображение Сценарист: Хироюки
Изображение Количество серий: 3 / 12 эп.
Изображение Продолжительность серии: 12 мин.
Изображение Возрастное ограничение: 16+

Изображение Перевод: Двухголосый (Ancord & Trina_D) Изображение
Изображение Хардсаб: Отсутствует

Изображение
Мангака Юки Аито не понимает чувств персонажей собственных историй, и просит ассистентку Ашису помочь. Она же готова на все ради работы! Даже позволить Аито прикоснуться к её груди, чтобы он мог прочувствовать эти ощущения!

Привычка?! Извращение? Как же их понять??...

Комедия о безумной повседневности мангаки и его ассистентки во всей красе!


Изображение|Изображение|Изображение

Изображение
Изображение

Изображение Качество: HDTVRip
Изображение Формат: MP4
Изображение Видео: x264; 1280x720; 23.976fps; ~1500 kbps
Изображение Аудио:
__________Аудио 1: RUS - AAC; 48.0 khz; 2.0 ch; 192 kbps

Полные тех.данные:
Общее
Полное имя: F:\Downloads\Mangaka-san to Assistant-san to [Ancord & Trina_D]\Mangaka-san to Assistant-san to - 01 [Ancord & Trina_D].mp4
Формат: MPEG-4
Профиль формата: Base Media
Идентификатор кодека: isom
Размер файла: 188 Мбайт
Продолжительность: 13 м.
Режим общего битрейта: Переменный
Общий поток: 1969 Кбит/сек
Дата кодирования: UTC 2014-04-08 20:10:12
Дата пометки: UTC 2014-04-08 20:10:12
Программа кодирования: Yamb 2.1.0.0 [http://yamb.unite-video.com]

Видео
Идентификатор: 1
Формат: AVC
Формат/Информация: Advanced Video Codec
Профиль формата: High@L4.0
Параметр CABAC формата: Да
Параметр ReFrames формата: 6 кадров
Идентификатор кодека: avc1
Идентификатор кодека/Информация: Advanced Video Coding
Продолжительность: 13 м.
Битрейт: 1776 Кбит/сек
Максимальный битрейт: 9070 Кбит/сек
Ширина: 1280 пикселей
Высота: 720 пикселей
Соотношение сторон: 16:9
Режим частоты кадров: Постоянный
Частота кадров: 23,976 кадра/сек
Цветовое пространство: YUV
Субдискретизация насыщенности: 4:2:0
Битовая глубина: 8 бит
Тип развёртки: Прогрессивная
Бит/(Пиксели*Кадры): 0.080
Размер потока: 169 Мбайт (90%)
Библиотека кодирования: x264 core 120 r2120 0c7dab9
Настройки программы: cabac=1 / ref=6 / deblock=1:1:1 / analyse=0x3:0x113 / me=umh / subme=8 / psy=1 / psy_rd=0.40:0.00 / mixed_ref=1 / me_range=16 / chroma_me=1 / trellis=1 / 8x8dct=1 / cqm=0 / deadzone=21,11 / fast_pskip=1 / chroma_qp_offset=-2 / threads=4 / sliced_threads=0 / nr=0 / decimate=1 / interlaced=0 / bluray_compat=0 / constrained_intra=0 / bframes=3 / b_pyramid=2 / b_adapt=2 / b_bias=0 / direct=3 / weightb=1 / open_gop=0 / weightp=2 / keyint=250 / keyint_min=23 / scenecut=40 / intra_refresh=0 / rc_lookahead=50 / rc=2pass / mbtree=1 / bitrate=1776 / ratetol=1.0 / qcomp=0.60 / qpmin=0 / qpmax=69 / qpstep=4 / cplxblur=20.0 / qblur=0.5 / vbv_maxrate=3552 / vbv_bufsize=8880 / nal_hrd=none / ip_ratio=1.40 / aq=1:0.60
Дата кодирования: UTC 2014-04-08 07:13:25
Дата пометки: UTC 2014-04-08 20:10:14

Аудио
Идентификатор: 2
Формат: AAC
Формат/Информация: Advanced Audio Codec
Профиль формата: LC
Идентификатор кодека: 40
Продолжительность: 13 м.
Вид битрейта: Переменный
Битрейт: 192 Кбит/сек
Максимальный битрейт: 201 Кбит/сек
Каналы: 2 канала
Расположение каналов: Front: L R
Частота: 48,0 КГц
Метод сжатия: С потерями
Размер потока: 18,3 Мбайт (10%)
Заголовок: Ancord & Trina_D
Язык: Russian
Дата кодирования: UTC 2014-04-08 20:10:14
Дата пометки: UTC 2014-04-08 20:10:14

Свернуть

Список эпизодов:
Изображение

01. Грудь совершенствования! / Работа Мечты / войны Трусиков / Выходной Отозуны Миари
02. Новый Помощник Прибывает / Это Важно / В первый Раз Вместе
03. Порнографическая Паника Мэг / я могу Заботиться о Ней? / Темная Комета Появляется!
*
04. S & M / Характер Талисмана / Branya Появляется! / Михари Семнадцать
05. Парк Шок / Когда-нибудь / Используя Близких друзей для Справки
06. Давайте пойдем на горячий источник


* Зелёным помечена последняя вышедшая серия!
Свернуть
Скриншоты
Изображение
Изображение
Изображение
Изображение
Свернуть
Скриншот миниатюра:
Изображение
Свернуть
_________________
PSN
Изображение
Свернуть
Steam
Изображение
Свернуть
Всем няшку^^
Изображение
Свернуть
Изображение
Не в сети
Профиль  
 Добавлено: 2014-05-17 12:21 (спустя 1 месяц)
Аватара пользователя
Стаж: 8 лет 7 месяцев
Возраст: 22
Сообщений: 476
Спасибок: 549
Лайков: 4
Добавлена 2 и 3 серия
ИзображениеНазвание серий: Новый Помощник Прибывает / Это Важно / В первый Раз Вместе и Порнографическая Паника Мэг / я могу Заботиться о Ней? / Темная Комета Появляется!Изображение
Обновите торрент
_________________
PSN
Изображение
Свернуть
Steam
Изображение
Свернуть
Всем няшку^^
Изображение
Свернуть
Изображение
Не в сети
Профиль  
Начать новую темуОтветить на тему  [ Сообщений: 2 ] 
Вы не можете начинать темы
Вы не можете отвечать на сообщения
Вы не можете редактировать свои сообщения
Вы не можете удалять свои сообщения