Начать новую темуОтветить на тему  [ 1 сообщение ] 
Торрент файл
Размер: 1.16 GB • Зарегистрирован: 5 месяцев 26 дней • Статус: Проверено
Скачан: 1 раз • Желающих скачать: 0 • Поблагодарили: 0 раз
 Раздают: 0  |  0 KB/s  ]   Качают: 0  |  0 KB/s  ] 
 Полного источника не было 3 месяца 9 дней 
Сообщения
 Добавлено: 2017-02-01 20:20
автор-исполнитель
Аватара пользователя
Стаж: 9 лет 8 месяцев
Возраст: 37
Сообщений: 453
Спасибок: 2011
Лайков: 4
Константин Жиляков / Коллекция

Изображение


Жанр: Шансон
Носитель: CD
Страна-производитель диска (релиза): Россия - USA
Год издания: 2014-2016
Издатель (лейбл): BlatMusic
Страна исполнителя (группы): Россия - USA
Аудиокодек: FLAC (*.flac)
Тип рипа: image+.cue
Битрейт аудио: lossless
Продолжительность: 02:37:37
Источник (релизер): Авторский диск
Наличие сканов в содержимом раздачи: да
"2014 - Пули Дни"

Изображение

Альбом: Пули Дни
Дата выпуска: 2014
Издатель (лейбл): BlatMusic
Страна: Россия (Екатеринбург)
Продолжительность: 01:05:19

Треклист:
01. Вступление.
02. Бригада.
03. Пули-Дни.
04. Сходняк.
05. Шубка (дуэт с Натальей Лапиной).
06. Козырная.
07. Воробушек.
08. Стрелка.
09. Пополам (дуэт с Сергеем Сиделем)
10. Бродяга.
11. Восьмое Марта (дуэт с Натальей Лапиной).
12. Заочница.
13. Вор в Законе.
14. Блатной Король (дуэт с Денисом Мафиком).
15. За тех, кто там.
16. Не верь, не бойся, не проси...
"Лог создания рипа"
[pre]
Exact Audio Copy V1.0 beta 6 from 9. April 2015

Отчёт EAC об извлечении, выполненном 1. февраля 2017, 15:59

Константин Жиляков / Пули Дни

Дисковод: HL-DT-STDVDRAM GU90N Adapter: 1 ID: 0

Режим чтения : Достоверность
Использование точного потока : Да
Отключение кэша аудио : Да
Использование указателей C2 : Нет

Коррекция смещения при чтении : 0
Способность читать области Lead-in и Lead-out : Нет
Заполнение пропущенных сэмплов тишиной : Да
Удаление блоков с тишиной в начале и конце : Нет
При вычислениях CRC использовались нулевые сэмплы : Да
Интерфейс : Встроенный Win32-интерфейс для Win NT/2000

Выходной формат : Пользовательский кодировщик
Выбранный битрейт : 896 kBit/s
Качество : Высокий
Добавление ID3-тега : Нет
Утилита сжатия : C:\Program Files (x86)\Exact Audio Copy\Flac\flac.exe
Дополнительные параметры : -V -8 -T "Date=%year%" -T "Genre=%genre%" %source%

TOC извлечённого CD

Трек | Старт | Длительность | Начальный сектор | Конечный сектор
---------------------------------------------------------------------
1 | 0:00.00 | 0:27.61 | 0 | 2085
2 | 0:27.61 | 4:16.24 | 2086 | 21309
3 | 4:44.10 | 3:46.61 | 21310 | 38320
4 | 8:30.71 | 3:28.00 | 38321 | 53920
5 | 11:58.71 | 4:50.31 | 53921 | 75701
6 | 16:49.27 | 3:33.70 | 75702 | 91746
7 | 20:23.22 | 4:29.05 | 91747 | 111926
8 | 24:52.27 | 4:28.37 | 111927 | 132063
9 | 29:20.64 | 5:06.51 | 132064 | 155064
10 | 34:27.40 | 3:50.37 | 155065 | 172351
11 | 38:18.02 | 4:32.57 | 172352 | 192808
12 | 42:50.59 | 4:46.00 | 192809 | 214258
13 | 47:36.59 | 3:33.61 | 214259 | 230294
14 | 51:10.45 | 4:40.00 | 230295 | 251294
15 | 55:50.45 | 4:24.00 | 251295 | 271094
16 | 60:14.45 | 5:04.47 | 271095 | 293941

Характеристики диапазона извлечения и сообщения об ошибках

Выбранный диапазон

Имя файла G:\КОСТЕТ\FLAC\Константин Жиляков - Пули Дни\Константин Жиляков - Пули Дни.wav

Копирование прервано

Конец отчёта

==== Контрольная сумма отчёта 8D7348DB371E201965CA456B87A392ECC015F3443A90F7CC31FD5AD4DC5D6985 ====

------------------------------------------------------------

Exact Audio Copy V1.0 beta 6 from 9. April 2015

Отчёт EAC об извлечении, выполненном 1. февраля 2017, 18:22

Константин Жиляков / Пули Дни

Дисковод: HL-DT-STDVDRAM GU90N Adapter: 1 ID: 0

Режим чтения : Достоверность
Использование точного потока : Да
Отключение кэша аудио : Да
Использование указателей C2 : Нет

Коррекция смещения при чтении : 0
Способность читать области Lead-in и Lead-out : Нет
Заполнение пропущенных сэмплов тишиной : Да
Удаление блоков с тишиной в начале и конце : Нет
При вычислениях CRC использовались нулевые сэмплы : Да
Интерфейс : Встроенный Win32-интерфейс для Win NT/2000

Выходной формат : Пользовательский кодировщик
Выбранный битрейт : 896 kBit/s
Качество : Высокий
Добавление ID3-тега : Нет
Утилита сжатия : C:\Program Files (x86)\Exact Audio Copy\Flac\flac.exe
Дополнительные параметры : -V -8 -T "Date=%year%" -T "Genre=%genre%" %source%

TOC извлечённого CD

Трек | Старт | Длительность | Начальный сектор | Конечный сектор
---------------------------------------------------------------------
1 | 0:00.00 | 0:27.61 | 0 | 2085
2 | 0:27.61 | 4:16.24 | 2086 | 21309
3 | 4:44.10 | 3:46.61 | 21310 | 38320
4 | 8:30.71 | 3:28.00 | 38321 | 53920
5 | 11:58.71 | 4:50.31 | 53921 | 75701
6 | 16:49.27 | 3:33.70 | 75702 | 91746
7 | 20:23.22 | 4:29.05 | 91747 | 111926
8 | 24:52.27 | 4:28.37 | 111927 | 132063
9 | 29:20.64 | 5:06.51 | 132064 | 155064
10 | 34:27.40 | 3:50.37 | 155065 | 172351
11 | 38:18.02 | 4:32.57 | 172352 | 192808
12 | 42:50.59 | 4:46.00 | 192809 | 214258
13 | 47:36.59 | 3:33.61 | 214259 | 230294
14 | 51:10.45 | 4:40.00 | 230295 | 251294
15 | 55:50.45 | 4:24.00 | 251295 | 271094
16 | 60:14.45 | 5:04.47 | 271095 | 293941

Характеристики диапазона извлечения и сообщения об ошибках

Выбранный диапазон

Имя файла G:\КОСТЕТ\FLAC\Константин Жиляков - Пули Дни\Константин Жиляков - Пули Дни.wav

Пиковый уровень 98.8 %
Скорость извлечения 4.8 X
Качество диапазона 99.9 %
CRC теста 85B06A5D
CRC копии 85B06A5D
Копирование... OK

Ошибок не произошло

Конец отчёта

==== Контрольная сумма отчёта ABE82E9B594B9B08896A32D766B5376E95D7A5DD50E841E7C3BB04C6D84A8FBA ====

[/pre]
Свернуть

"Лог проверки качества"
[pre]
AUDIOCHECKER v2.0 beta (build 457) - by Dester - opdester@freemail.hu
~~~~~~~~~~~~~~~~~~~~~~~~~~~~~~~~~~
-=== НЕ РЕДАКТИРУЙТЕ ЭТОТ ФАЙЛ! ===-

Путь: ...\Константин Жиляков - Пули Дни

1 -=- Константин Жиляков - Пули Дни.flac -=- CDDA (100%)

104713284

[/pre]
Свернуть

"Скриншот спектра частот"
Изображение
Свернуть

Свернуть

"2015 - Два Берега"

Изображение

Альбом: Два Берега
Дата выпуска: 2015
Издатель (лейбл): BlatMusic
Страна: USA (Miami)
Продолжительность: 00:48:14

Треклист:
1. Брайтон
2. Сестра
3. Ханука
4. Дожди
5. Майами
6. Заграница
7. Дядя Сэм
8. Местечко
9. Майами Бич
10. Одесса
11. Молдаванка
12. Два берега (Дуэт с Aksinia)
"Лог создания рипа"
[pre]
Exact Audio Copy V1.0 beta 6 from 9. April 2015

Отчёт EAC об извлечении, выполненном 1. февраля 2017, 12:54

Константин Жиляков / Два Берега

Дисковод: HL-DT-STDVDRAM GU90N Adapter: 1 ID: 0

Режим чтения : Достоверность
Использование точного потока : Да
Отключение кэша аудио : Да
Использование указателей C2 : Нет

Коррекция смещения при чтении : 0
Способность читать области Lead-in и Lead-out : Нет
Заполнение пропущенных сэмплов тишиной : Да
Удаление блоков с тишиной в начале и конце : Нет
При вычислениях CRC использовались нулевые сэмплы : Да
Интерфейс : Встроенный Win32-интерфейс для Win NT/2000

Выходной формат : Пользовательский кодировщик
Выбранный битрейт : 896 kBit/s
Качество : Высокий
Добавление ID3-тега : Нет
Утилита сжатия : C:\Program Files (x86)\Exact Audio Copy\Flac\flac.exe
Дополнительные параметры : -V -8 -T "Date=%year%" -T "Genre=%genre%" %source%

TOC извлечённого CD

Трек | Старт | Длительность | Начальный сектор | Конечный сектор
---------------------------------------------------------------------
1 | 0:00.00 | 4:03.30 | 0 | 18254
2 | 4:03.30 | 4:19.64 | 18255 | 37743
3 | 8:23.19 | 3:45.42 | 37744 | 54660
4 | 12:08.61 | 4:07.15 | 54661 | 73200
5 | 16:16.01 | 4:11.00 | 73201 | 92025
6 | 20:27.01 | 4:39.46 | 92026 | 112996
7 | 25:06.47 | 3:35.60 | 112997 | 129181
8 | 28:42.32 | 4:53.16 | 129182 | 151172
9 | 33:35.48 | 3:19.69 | 151173 | 166166
10 | 36:55.42 | 3:25.58 | 166167 | 181599
11 | 40:21.25 | 3:34.52 | 181600 | 197701
12 | 43:56.02 | 4:18.03 | 197702 | 217054

Характеристики диапазона извлечения и сообщения об ошибках

Выбранный диапазон

Имя файла G:\КОСТЕТ\FLAC\Константин Жиляков - Два Берега\Константин Жиляков - Два Берега.wav

Пиковый уровень 100.0 %
Скорость извлечения 4.6 X
Качество диапазона 99.9 %
CRC теста 96AF9688
CRC копии 96AF9688
Копирование... OK

Ошибок не произошло

Конец отчёта

==== Контрольная сумма отчёта B2FFF45A22B5E2797478396C76F5CDCE1685CFB2C87264715AE6CEFF21E5B6B3 ====

[/pre]
Свернуть

"Лог проверки качества"
[pre]
AUDIOCHECKER v2.0 beta (build 457) - by Dester - opdester@freemail.hu
~~~~~~~~~~~~~~~~~~~~~~~~~~~~~~~~~~
-=== НЕ РЕДАКТИРУЙТЕ ЭТОТ ФАЙЛ! ===-

Путь: ...\Константин Жиляков - Два Берега

1 -=- Константин Жиляков - Два Берега.flac -=- CDDA (99%)

187022852

[/pre]
Свернуть

"Скриншот спектра частот"
Изображение
Свернуть

Свернуть

"2016 - Бархатный Сезон"

Изображение

Альбом: Бархатный Сезон
Дата выпуска: 2016
Издатель (лейбл): BlatMusic
Страна: Россия
Продолжительность: 00:44:04

Треклист:
01. Воробушек 2
02. Судьба
03. Лав Стори
04. Ялта
05. Друзья
06. Море Черное
07. Белый Крым
08. Курортный Роман
09. Крымская
10. ЮБК
11. Одесса

"Лог создания рипа"
[pre]
Exact Audio Copy V1.0 beta 6 from 9. April 2015

Отчёт EAC об извлечении, выполненном 1. февраля 2017, 11:51

Константин Жиляков / Бархатный Сезон

Дисковод: HL-DT-STDVDRAM GU90N Adapter: 1 ID: 0

Режим чтения : Достоверность
Использование точного потока : Да
Отключение кэша аудио : Да
Использование указателей C2 : Нет

Коррекция смещения при чтении : 0
Способность читать области Lead-in и Lead-out : Нет
Заполнение пропущенных сэмплов тишиной : Да
Удаление блоков с тишиной в начале и конце : Нет
При вычислениях CRC использовались нулевые сэмплы : Да
Интерфейс : Встроенный Win32-интерфейс для Win NT/2000

Выходной формат : Пользовательский кодировщик
Выбранный битрейт : 896 kBit/s
Качество : Высокий
Добавление ID3-тега : Нет
Утилита сжатия : C:\Program Files (x86)\Exact Audio Copy\Flac\flac.exe
Дополнительные параметры : -V -8 -T "Date=%year%" -T "Genre=%genre%" %source%

TOC извлечённого CD

Трек | Старт | Длительность | Начальный сектор | Конечный сектор
---------------------------------------------------------------------
1 | 0:00.00 | 4:27.47 | 0 | 20071
2 | 4:27.47 | 3:50.71 | 20072 | 37392
3 | 8:18.43 | 4:07.01 | 37393 | 55918
4 | 12:25.44 | 4:15.71 | 55919 | 75114
5 | 16:41.40 | 4:24.32 | 75115 | 94946
6 | 21:05.72 | 3:50.14 | 94947 | 112210
7 | 24:56.11 | 4:40.37 | 112211 | 133247
8 | 29:36.48 | 3:45.38 | 133248 | 150160
9 | 33:22.11 | 3:58.45 | 150161 | 168055
10 | 37:20.56 | 3:19.46 | 168056 | 183026
11 | 40:40.27 | 3:23.58 | 183027 | 198309

Характеристики диапазона извлечения и сообщения об ошибках

Выбранный диапазон

Имя файла G:\КОСТЕТ\FLAC\Константин Жиляков - Бархатный Сезон.wav

Пиковый уровень 95.1 %
Скорость извлечения 4.4 X
Качество диапазона 99.9 %
CRC теста F88F01E2
CRC копии F88F01E2
Копирование... OK

Ошибок не произошло

Конец отчёта

==== Контрольная сумма отчёта 83DF8591EB7704D2D74742F10E05B7174890D4C70D8636B41FAAAD171DFEEB14 ====

[/pre]
Свернуть

"Лог проверки качества"
[pre]
AUDIOCHECKER v2.0 beta (build 457) - by Dester - opdester@freemail.hu
~~~~~~~~~~~~~~~~~~~~~~~~~~~~~~~~~~
-=== НЕ РЕДАКТИРУЙТЕ ЭТОТ ФАЙЛ! ===-

Путь: ...\Константин Жиляков - Бархатный Сезон

1 -=- Константин Жиляков - Бархатный Сезон.flac -=- CDDA (100%)

131967220

[/pre]
Свернуть

"Скриншот спектра частот"
Изображение
Свернуть

Свернуть

"Об исполнителе"
Жиляков Константин Алексеевич (род. 7 августа 1979, Нижний Новгород) псевдоним - "Костет " – российский музыкант, автор-исполнитель в жанре Русский Шансон, создатель проектов в разных музыкальных жанрах. Летом 2014 года уезжает в США. Активно гастролирует, записывает новые песни. Так же занимается сторонними проектами - обеспечение тех. поддержки и видео-съемка тура группы "Весёлые ребята (ВИА)" (Игорь Гатауллин) во Флориде, съёмка интервью с Владимиром Черняковым, для русскоязычного, кабельного TV Америки. Далее следует знакомство и сотрудничество с легендой жанра - Михаилом Звездинским.
В октябре состоялся совместный концерт с Заслуженным Артистом России Владимиром "Мастером" Михайловым в Майами.
В сентябре 2014 года выпускает "блатной" альбом "Пули-Дни" в лучших традициях русской блатной песни столь популярного течения в жанре «Русский шансон». Песни активно транслируются по русскоязычным радиостанциям и кабельным каналам Америки.
В 2015 году выходит "американский" альбом эмигрантских песен "Два Берега". Записан в Майами. После концертов не надолго возвращается в Россию, где гастролирует по Крыму до осени 2015 года. Возвращение в Майами и запись нового альбома.
1 января 2016 года выходит "крымский" альбом лирических песен "Бархатный Сезон".
Свернуть
Не в сети
Профиль  
Начать новую темуОтветить на тему  [ 1 сообщение ] 
Вы не можете начинать темы
Вы не можете отвечать на сообщения
Вы не можете редактировать свои сообщения
Вы не можете удалять свои сообщения