Начать новую темуОтветить на тему  [ 1 сообщение ] 
Торрент файл
Размер: 3.71 GB • Зарегистрирован: 2 года 9 месяцев • Статус: Проверено
Скачан: 1 раз • Желающих скачать: 0 • Поблагодарили: 0 раз
 Раздают: 0  |  0 KB/s  ]   Качают: 0  |  0 KB/s  ] 
 Полного источника не было 1 год 3 месяца 
Сообщения
 Добавлено: 2014-12-16 14:12
Top-releaser
Аватара пользователя
Стаж: 3 года 1 месяц
Сообщений: 8219
Спасибок: 57096
Лайков: 3800
Извещение Марии

Изображение


Год выпуска: 2007
Страна: Беларусь
Жанр: Драма
Продолжительность: 01:42:50 + 00:58:00

Режиссёр: Борис Луценко
Композитр: Александр Ренанский
В ролях: Олег Корчиков, Белла Масумян, Анастасия Шпаковская, Иван Мацкевич, Сергей Чекерес, Юлия Полубинская, Виктор Гудинович, Богдан Берёзкин
Описание: Глава семьи Анн Веркор отправляется в Иерусалим поклониться Богу. Его младшая дочь Мара не может спокойно смотреть на счастье своей родной сестры, собирающейся замуж за красавца Жака Ури. Но что это? Уж не грезит ли Мара наяву? Виолена целует в губы… прокажённого Пьера де Краона! Какое немыслимое грехопадение накануне свадьбы!.. Правда, Жак не из тех, кто верит россказням и слухам. Однако есть доказательство, которое предоставит ему сама Виолена. Это след проказы на её теле...

Много бед и несчастий ждут героев спектакля «Извещение Марии» на пути к единственно верной истине: «Что стоит мир в сравнении с жизнью? И что стоит жизнь, если её не отдать?» Отдать, приняв всю скорбь мира, боль разгромленной и униженной Родины, и боль всех христиан Земли за Веру, расчленённую надвое.
Для нас, людей, живущих в начале третьего тысячелетия христианской эры, так же болезненны и остры вопросы обретения или утраты веры, поисков духовного пути и внутренних ориентиров, как и для людей того далёкого времени.


Качество: DVB
Формат: MPEG-PS
Видео кодек: MPEG2
Аудио кодек: MP3 (MPEG1 Layer 3)
Видео: MPEG2 Video 720x576 (4:3) 25.00fps, 2 979Кбит/сек
Аудио #1: MPEG Audio 48000Hz stereo 256kbps, 2 канала
Изображение

"MediaInfo"
General

Complete name : D:ТеатрИзвещение Марии (2007)Извещение Марии (2007)Извещение Марии_01_(2007).mpg

Format : MPEG-PS

File size : 2.37 GiB

Duration : 1h 42mn

Overall bit rate mode : Variable

Overall bit rate : 3 301 Kbps


Video

ID : 224 (0xE0)

Format : MPEG Video

Format version : Version 2

Format profile : Main@Main

Format settings, BVOP : Yes

Format settings, Matrix : Custom

Format settings, GOP : M=3, N=15

Format settings, picture struc : Frame

Duration : 1h 42mn

Bit rate mode : Variable

Bit rate : 2 979 Kbps

Maximum bit rate : 9 500 Kbps

Width : 720 pixels

Height : 576 pixels

Display aspect ratio : 4:3

Frame rate : 25.000 fps

Standard : PAL

Color space : YUV

Chroma subsampling : 4:2:0

Bit depth : 8 bits

Scan type : Interlaced

Scan order : Top Field First

Compression mode : Lossy

Bits/(Pixel*Frame) : 0.287

Time code of first frame : 00:00:00:00

Time code source : Group of pictures header

GOP, Open/Closed : Open

Stream size : 2.14 GiB (90%)

GOP, Open/Closed of first fram : Closed


Audio

ID : 192 (0xC0)

Format : MPEG Audio

Format version : Version 1

Format profile : Layer 2

Duration : 1h 42mn

Bit rate mode : Constant

Bit rate : 256 Kbps

Channel(s) : 2 channels

Sampling rate : 48.0 KHz

Compression mode : Lossy

Stream size : 188 MiB (8%)
Свернуть

Скриншоты
Изображение
Изображение
Изображение
Свернуть
Не в сети
Профиль  
Начать новую темуОтветить на тему  [ 1 сообщение ] 
Вы не можете начинать темы
Вы не можете отвечать на сообщения
Вы не можете редактировать свои сообщения
Вы не можете удалять свои сообщения