Начать новую темуОтветить на тему  [ 1 сообщение ] 
Торрент файл
Размер: 635.83 MB • Зарегистрирован: 11 дней • Статус: * Не проверено
Скачан: 3 раза • Желающих скачать: 0 • Поблагодарили: 0 раз
 Раздают: 0  |  0 KB/s  ]   Качают: 0  |  0 KB/s  ] 
 Полного источника не было 9 часов 
Сообщения
 Добавлено: 2017-01-10 00:13
Top-seeder
Аватара пользователя
Стаж: 7 лет 3 месяца
Возраст: 26
Сообщений: 3663
Спасибок: 4947
Лайков: 1258

Kyau & Albert - 20 Years

Изображение

Тип релиза| Альбом (LP)
Страна| Germany
Лейбл| euphonic
Год выпуска| 2016
Жанр| Trance, Progressive Trance, Tech Trance
Формат| FLAC (tracks+.cue)
Битрейт| lossless
Продолжительность| 01:16:50
Полиграфия| Полная
Треклист|
01. I'm Not With You (Ping Pong Remix)
02. Are You One Of Us? (Cabriolet Paris Remix)
03. 7Skies (Solid Stone Remix)
04. Hide & Seek (Morttagua Remix)
05. Down (Francesco Sambero Remix)
06. Made Of Sun (Sunny Lax Remix)
07. Velvet Morning (Genix Remix)
08. All Your Colours (Ost & Meyer Remix)
09. Megashira (Chris Schweizer Remix)
10. Are You Fine? (20 Years Remake)
11. Neo Love (Mino Safy Remix)
12. Painkillers (Johnny Yono Remix)
13. I Love You (Dimension Remix)
14. Falling Anywhere (20 Years Remake)
15. Always A Fool (Stoneface & Terminal Remix)
16. This Love (Solis & Sean Truby Remix)
17. Another Time (Local Heroes Remix)
18. Be There 4 U (Ferry Tayle Remix)
19. A Night Like This (Cold Rush Remix)
20. Kiksu (The Noble Six 2016 Remix)
21. Walk Down (Ronski Speed Remix)
22. Once In A Life (Dan Stone Remix)

Лог создания рипа
Exact Audio Copy V1.3 from 2. September 2016
EAC extraction logfile from 8. January 2017, 13:04
Kyau & Albert / 20 Years
Used drive : PIONEER DVD-RW DVRTD11RS Adapter: 1 ID: 0
Read mode : Secure
Utilize accurate stream : Yes
Defeat audio cache : Yes
Make use of C2 pointers : No
Read offset correction : 6
Overread into Lead-In and Lead-Out : No
Fill up missing offset samples with silence : Yes
Delete leading and trailing silent blocks : No
Null samples used in CRC calculations : Yes
Used interface : Native Win32 interface for Win NT & 2000
Gap handling : Appended to previous track
Used output format : User Defined Encoder
Selected bitrate : 1024 kBit/s
Quality : High
Add ID3 tag : No
Command line compressor : C:\Program Files (x86)\Exact Audio Copy\Flac\flac.exe
Additional command line options : -8 -V -T "ARTIST=%artist%" -T "TITLE=%title%" -T "ALBUM=%albumtitle%" -T "DATE=%year%" -T "TRACKNUMBER=%tracknr%" -T "TOTALTRACKS=%numtracks%" -T "GENRE=%genre%" -T "ALBUMARTIST=%albumartist%" -T "ALBUM ARTIST=%albumartist%" -T "COMMENT=EAC Secure Mode, Test & Copy, AccurateRip, FLAC -8" %source%
TOC of the extracted CD
Track | Start | Length | Start sector | End sector
---------------------------------------------------------
1 | 0:00.00 | 3:33.01 | 0 | 15975
2 | 3:33.01 | 1:47.74 | 15976 | 24074
3 | 5:21.00 | 2:47.10 | 24075 | 36609
4 | 8:08.10 | 3:16.33 | 36610 | 51342
5 | 11:24.43 | 2:30.63 | 51343 | 62655
6 | 13:55.31 | 3:32.47 | 62656 | 78602
7 | 17:28.03 | 2:53.54 | 78603 | 91631
8 | 20:21.57 | 2:48.64 | 91632 | 104295
9 | 23:10.46 | 2:41.69 | 104296 | 116439
10 | 25:52.40 | 3:52.56 | 116440 | 133895
11 | 29:45.21 | 3:39.74 | 133896 | 150394
12 | 33:25.20 | 3:47.70 | 150395 | 167489
13 | 37:13.15 | 3:54.61 | 167490 | 185100
14 | 41:08.01 | 3:20.73 | 185101 | 200173
15 | 44:28.74 | 4:03.02 | 200174 | 218400
16 | 48:32.01 | 4:09.70 | 218401 | 237145
17 | 52:41.71 | 4:23.15 | 237146 | 256885
18 | 57:05.11 | 3:44.62 | 256886 | 273747
19 | 60:49.73 | 4:13.61 | 273748 | 292783
20 | 65:03.59 | 4:12.31 | 292784 | 311714
21 | 69:16.15 | 3:16.08 | 311715 | 326422
22 | 72:32.23 | 4:17.57 | 326423 | 345754
Track 1
Filename I:\EAC\Kyau & Albert - 20 Years (2016) [FLAC]\01 - I'm Not With You (Ping Pong Remix).wav
Pre-gap length 0:00:02.00
Peak level 98.7 %
Extraction speed 2.9 X
Track quality 100.0 %
Test CRC C3B6033E
Copy CRC C3B6033E
Accurately ripped (confidence 1) [BA53BB29] (AR v2)
Copy OK
Track 2
Filename I:\EAC\Kyau & Albert - 20 Years (2016) [FLAC]\02 - Are You One Of Us (Cabriolet Paris Remix).wav
Peak level 98.7 %
Extraction speed 2.7 X
Track quality 100.0 %
Test CRC 585E1C5F
Copy CRC 585E1C5F
Accurately ripped (confidence 1) [CF6E356B] (AR v2)
Copy OK
Track 3
Filename I:\EAC\Kyau & Albert - 20 Years (2016) [FLAC]\03 - 7Skies (Solid Stone Remix).wav
Peak level 98.7 %
Extraction speed 3.1 X
Track quality 100.0 %
Test CRC 43A11F16
Copy CRC 43A11F16
Accurately ripped (confidence 1) [E0654315] (AR v2)
Copy OK
Track 4
Filename I:\EAC\Kyau & Albert - 20 Years (2016) [FLAC]\04 - Hide & Seek (Morttagua Remix).wav
Peak level 98.7 %
Extraction speed 3.4 X
Track quality 100.0 %
Test CRC 118125E5
Copy CRC 118125E5
Accurately ripped (confidence 1) [E5F177C3] (AR v2)
Copy OK
Track 5
Filename I:\EAC\Kyau & Albert - 20 Years (2016) [FLAC]\05 - Down (Francesco Sambero Remix).wav
Peak level 98.7 %
Extraction speed 3.4 X
Track quality 100.0 %
Test CRC 335E8D6E
Copy CRC 335E8D6E
Accurately ripped (confidence 1) [7988D201] (AR v2)
Copy OK
Track 6
Filename I:\EAC\Kyau & Albert - 20 Years (2016) [FLAC]\06 - Made Of Sun (Sunny Lax Remix).wav
Peak level 98.7 %
Extraction speed 3.8 X
Track quality 100.0 %
Test CRC 45BD48E7
Copy CRC 45BD48E7
Accurately ripped (confidence 1) [AF768ED6] (AR v2)
Copy OK
Track 7
Filename I:\EAC\Kyau & Albert - 20 Years (2016) [FLAC]\07 - Velvet Morning (Genix Remix).wav
Peak level 98.7 %
Extraction speed 3.8 X
Track quality 100.0 %
Test CRC CDAC5F47
Copy CRC CDAC5F47
Accurately ripped (confidence 1) [C8CCBD96] (AR v2)
Copy OK
Track 8
Filename I:\EAC\Kyau & Albert - 20 Years (2016) [FLAC]\08 - All Your Colours (Ost & Meyer Remix).wav
Peak level 98.7 %
Extraction speed 3.9 X
Track quality 100.0 %
Test CRC 659C798B
Copy CRC 659C798B
Accurately ripped (confidence 1) [5486C9CB] (AR v2)
Copy OK
Track 9
Filename I:\EAC\Kyau & Albert - 20 Years (2016) [FLAC]\09 - Megashira (Chris Schweizer Remix).wav
Peak level 98.7 %
Extraction speed 4.0 X
Track quality 100.0 %
Test CRC 4762EBDF
Copy CRC 4762EBDF
Accurately ripped (confidence 1) [D1998B3A] (AR v2)
Copy OK
Track 10
Filename I:\EAC\Kyau & Albert - 20 Years (2016) [FLAC]\10 - Are You Fine (20 Years Remake).wav
Peak level 98.7 %
Extraction speed 3.7 X
Track quality 99.9 %
Test CRC 1E8A0A8C
Copy CRC 1E8A0A8C
Accurately ripped (confidence 1) [3A72D9D9] (AR v2)
Copy OK
Track 11
Filename I:\EAC\Kyau & Albert - 20 Years (2016) [FLAC]\11 - Neo Love (Mino Safy Remix).wav
Peak level 98.7 %
Extraction speed 4.5 X
Track quality 100.0 %
Test CRC EA9B5CA3
Copy CRC EA9B5CA3
Accurately ripped (confidence 1) [7FEBE9A2] (AR v2)
Copy OK
Track 12
Filename I:\EAC\Kyau & Albert - 20 Years (2016) [FLAC]\12 - Painkillers (Johnny Yono Remix).wav
Peak level 98.7 %
Extraction speed 4.7 X
Track quality 100.0 %
Test CRC 0F434F42
Copy CRC 0F434F42
Accurately ripped (confidence 1) [2AB47D15] (AR v2)
Copy OK
Track 13
Filename I:\EAC\Kyau & Albert - 20 Years (2016) [FLAC]\13 - I Love You (Dimension Remix).wav
Peak level 98.7 %
Extraction speed 4.9 X
Track quality 100.0 %
Test CRC AB3D0889
Copy CRC AB3D0889
Accurately ripped (confidence 1) [CDA4FC18] (AR v2)
Copy OK
Track 14
Filename I:\EAC\Kyau & Albert - 20 Years (2016) [FLAC]\14 - Falling Anywhere (20 Years Remake).wav
Peak level 98.7 %
Extraction speed 5.0 X
Track quality 100.0 %
Test CRC 30F8351F
Copy CRC 30F8351F
Accurately ripped (confidence 1) [BE02CF14] (AR v2)
Copy OK
Track 15
Filename I:\EAC\Kyau & Albert - 20 Years (2016) [FLAC]\15 - Always A Fool (Stoneface & Terminal Remix).wav
Peak level 98.7 %
Extraction speed 4.4 X
Track quality 99.9 %
Test CRC 28FBF943
Copy CRC 28FBF943
Accurately ripped (confidence 1) [C14C419F] (AR v2)
Copy OK
Track 16
Filename I:\EAC\Kyau & Albert - 20 Years (2016) [FLAC]\16 - This Love (Solis & Sean Truby Remix).wav
Peak level 98.7 %
Extraction speed 5.4 X
Track quality 100.0 %
Test CRC 239EB3C1
Copy CRC 239EB3C1
Accurately ripped (confidence 1) [1409B45F] (AR v2)
Copy OK
Track 17
Filename I:\EAC\Kyau & Albert - 20 Years (2016) [FLAC]\17 - Another Time (Local Heroes Remix).wav
Peak level 98.7 %
Extraction speed 5.6 X
Track quality 100.0 %
Test CRC 8BEAAF03
Copy CRC 8BEAAF03
Accurately ripped (confidence 1) [C027E5A8] (AR v2)
Copy OK
Track 18
Filename I:\EAC\Kyau & Albert - 20 Years (2016) [FLAC]\18 - Be There 4 U (Ferry Tayle Remix).wav
Peak level 98.7 %
Extraction speed 5.7 X
Track quality 100.0 %
Test CRC C477A95F
Copy CRC C477A95F
Accurately ripped (confidence 1) [D91C3FCF] (AR v2)
Copy OK
Track 19
Filename I:\EAC\Kyau & Albert - 20 Years (2016) [FLAC]\19 - A Night Like This (Cold Rush Remix).wav
Peak level 98.7 %
Extraction speed 5.8 X
Track quality 100.0 %
Test CRC D6FAB07E
Copy CRC D6FAB07E
Accurately ripped (confidence 1) [F44F24B0] (AR v2)
Copy OK
Track 20
Filename I:\EAC\Kyau & Albert - 20 Years (2016) [FLAC]\20 - Kiksu (The Noble Six 2016 Remix).wav
Peak level 98.7 %
Extraction speed 6.1 X
Track quality 100.0 %
Test CRC 7BED5219
Copy CRC 7BED5219
Accurately ripped (confidence 1) [66DC187A] (AR v2)
Copy OK
Track 21
Filename I:\EAC\Kyau & Albert - 20 Years (2016) [FLAC]\21 - Walk Down (Ronski Speed Remix).wav
Peak level 98.7 %
Extraction speed 5.8 X
Track quality 100.0 %
Test CRC 49DEFEAC
Copy CRC 49DEFEAC
Accurately ripped (confidence 1) [1BE4B68A] (AR v2)
Copy OK
Track 22
Filename I:\EAC\Kyau & Albert - 20 Years (2016) [FLAC]\22 - Once In A Life (Dan Stone Remix).wav
Peak level 98.7 %
Extraction speed 6.2 X
Track quality 100.0 %
Test CRC 4ED4A747
Copy CRC 4ED4A747
Accurately ripped (confidence 1) [AEA18FDD] (AR v2)
Copy OK
All tracks accurately ripped
No errors occurred
End of status report
---- CUETools DB Plugin V2.1.6
[CTDB TOCID: UmWyn9ZuccTUSFrZrKpdu3VAOQY-] found
Submit result: already submitted
Track | CTDB Status
1 | (4/4) Accurately ripped
2 | (4/4) Accurately ripped
3 | (4/4) Accurately ripped
4 | (4/4) Accurately ripped
5 | (4/4) Accurately ripped
6 | (4/4) Accurately ripped
7 | (4/4) Accurately ripped
8 | (4/4) Accurately ripped
9 | (4/4) Accurately ripped
10 | (4/4) Accurately ripped
11 | (4/4) Accurately ripped
12 | (4/4) Accurately ripped
13 | (4/4) Accurately ripped
14 | (4/4) Accurately ripped
15 | (4/4) Accurately ripped
16 | (4/4) Accurately ripped
17 | (4/4) Accurately ripped
18 | (4/4) Accurately ripped
19 | (4/4) Accurately ripped
20 | (4/4) Accurately ripped
21 | (4/4) Accurately ripped
22 | (4/4) Accurately ripped
==== Log checksum 22FE8B5F8721F593F99A608217836F458250C404EE28E48324726D905EADCD7E ====
Свернуть

Лог проверки качества
AUDIOCHECKER v2.0 beta (build 457) - by Dester - opdester@freemail.hu
~~~~~~~~~~~~~~~~~~~~~~~~~~~~~~~~~~
-=== НЕ РЕДАКТИРУЙТЕ ЭТОТ ФАЙЛ! ===-
Путь: ...\Kyau & Albert - 20 Years (2016) [FLAC]
01 -=- 01 - I'm Not With You (Ping Pong Remix).flac -=- CDDA (100%)
02 -=- 02 - Are You One Of Us (Cabriolet Paris Remix).flac -=- CDDA (100%)
03 -=- 03 - 7Skies (Solid Stone Remix).flac -=- CDDA (100%)
04 -=- 04 - Hide & Seek (Morttagua Remix).flac -=- MPEG (89%)
05 -=- 05 - Down (Francesco Sambero Remix).flac -=- CDDA (100%)
06 -=- 06 - Made Of Sun (Sunny Lax Remix).flac -=- CDDA (100%)
07 -=- 07 - Velvet Morning (Genix Remix).flac -=- CDDA (100%)
08 -=- 08 - All Your Colours (Ost & Meyer Remix).flac -=- CDDA (100%)
09 -=- 09 - Megashira (Chris Schweizer Remix).flac -=- CDDA (100%)
10 -=- 10 - Are You Fine (20 Years Remake).flac -=- CDDA (100%)
11 -=- 11 - Neo Love (Mino Safy Remix).flac -=- CDDA (100%)
12 -=- 12 - Painkillers (Johnny Yono Remix).flac -=- CDDA (99%)
13 -=- 13 - I Love You (Dimension Remix).flac -=- CDDA (100%)
14 -=- 14 - Falling Anywhere (20 Years Remake).flac -=- CDDA (100%)
15 -=- 15 - Always A Fool (Stoneface & Terminal Remix).flac -=- CDDA (99%)
16 -=- 16 - This Love (Solis & Sean Truby Remix).flac -=- CDDA (100%)
17 -=- 17 - Another Time (Local Heroes Remix).flac -=- CDDA (100%)
18 -=- 18 - Be There 4 U (Ferry Tayle Remix).flac -=- CDDA (100%)
19 -=- 19 - A Night Like This (Cold Rush Remix).flac -=- CDDA (100%)
20 -=- 20 - Kiksu (The Noble Six 2016 Remix).flac -=- CDDA (100%)
21 -=- 21 - Walk Down (Ronski Speed Remix).flac -=- CDDA (100%)
22 -=- 22 - Once In A Life (Dan Stone Remix).flac -=- CDDA (100%)
Сводка 95,86% CDDA
41156612
Свернуть

Kyau & Albert - Always A Fool (Stoneface & Terminal Remix)
Свернуть

_________________
Изображение
Не в сети
Профиль  
Начать новую темуОтветить на тему  [ 1 сообщение ] 
Вы не можете начинать темы
Вы не можете отвечать на сообщения
Вы не можете редактировать свои сообщения
Вы не можете удалять свои сообщения