Начать новую темуОтветить на тему  [ Сообщений: 2 ] 
Торрент файл
Размер: 12.12 GB • Зарегистрирован: 5 лет 6 месяцев • Статус: Проверено
Скачан: 25 раз • Желающих скачать: 0 • Поблагодарили: 8 раз
 Раздают: 0  |  0 KB/s  ]   Качают: 0  |  0 KB/s  ] 
 Полного источника не было 9 месяцев 
Сообщения
 Добавлено: 2011-12-18 23:14
Top-releaser
Аватара пользователя
Стаж: 7 лет 7 месяцев
Сообщений: 504
Спасибок: 5123
Лайков: 5
Трансформеры - Армада 52 из 52/ Transformers: Armada


Изображение


Дата выпуска: 2003 год
Страна: Япония / США
Жанр: фантастика, боевик
Режиссер: Хидехито Уеда

Продолжительность:~ 00:25:00 1 серия

Перевод:
Серии 01-20, 25-52 Многоголосый закадровый
Серии 21-24 Одноголосый закадровый, любительский.

Описание:
Миллионы лет назад зародилась вражда между двумя расами трансформеров. Но в противостоянии автоботов и десиптиконов не было победителей: их силы были приблизительно равны. Хрупкое равновесие нарушили мини-коны – роботы, которые наделяют своего хозяина-трасформера небывалой мощью. Чтобы не давать какой-то расе планеты Кибертрон преимущества, мини-конов отправили в космическом корабле на Землю. Там мини-роботы пребывали в деактивированном состоянии, пока на них не наткнулись трое обычных ребят - Рэд, Карлос и Алексис. И теперь на землю с Кибертрона спешат лучшие бойцы автоботов и десиптиконов, чтобы взять мини-конов под свой контроль…

У троих мини-конов есть удивительная особенность – соединившись вместе, они образуют «Звездный Меч» - смертоносное оружие, которые однажды погубило легендарную Атлантиду. Кто же станет обладателем страшного оружия и что тогда случится с нашей Галактикой?

Список серий
1. First Encounter (русск. Первое знакомство)
2. Metamorphosis (русск. Метаморфоза)
3. Base (русск. База)
4. Comrade (русск. Товарищ)
5. Soldier (русск. Солдат)
6. Jungle (русск. Джунгли)
7. Carnival (русск. Карнавал)
8. Palace (русск. Дворец)
9. Confrontation (русск. Противостояние)
10. Underground (русск. Подземелье)
11. Ruin (русск. Руины)
12. Prehistory (русск. Предыстория)
13. Swoop (русск. Атака)
14. Overmatch (русск. Превосходство сил)
15. Gale (русск. Внезапность)
16. Credulous (русск. Доверчивый)
17. Conspiracy (русск. Заговор)
18. Trust (русск. Доверие)
19. Vacation (русск. Каникулы)
20. Reinforcement (русск. Подкрепление)
21. Decisive Battle (русск. Решающий бой) - mkv
22. Vow (русск. Обет) - mkv
23. Rebellion (русск. Мятеж) - mkv
24. Chase (русск. Преследование) - mkv
25. Tactician (русск. Тактик)
26. Link Up (русск. Слияние)
27. Detection (русск. Обнаружение)
28. Awakening (русск. Пробуждение)
29. Desperate (русск. Отчаянные)
30. Runaway (русск. Побег)
31. Past, Part 1 (русск. Тень прошлого, часть 1)
32. Past, Part 2 (русск. Тень прошлого, часть 2)
33. Sacrifice (русск. Жертва)
34. Regeneration (русск. Восстановление)
35. Rescue (русск. Спасение)
36. Mars (русск. Марс)
37. Crack (русск. Перелом)
38. Threaten (русск. Угроза)
39. Crisis (русск. Кризис)
40. Remorse (русск. Раскаяние)
41. Depart (русск. Отбытие)
42. Miracle (русск. Чудо)
43. Puppet (русск. Марионетка)
44. Uprising (русск. Восхождение)
45. Dash (русск. Смелость)
46. Drift (русск. Сбор)
47. Portent (русск. Предзнаменование)
48. Cramp (русск. Тиски)
49. Alliance (русск. Союз)
50. Union (русск. Единство)
51. Origin (русск. Происхождение)
52. Mortal Combat (русск. Смертельная битва)
Свернуть

Тех.данные:

Серии 01-20 и 25-52
Качество видео: DVDRip
Видео: 640x480,Xvid,25,000 кадр/сек,~1324 Кбит/с
Аудио:АС3,48,0 КГц,192 Кбит/сек
MediaInfo
Общее
Формат : Matroska
Размер файла : 303 Мбайт
Продолжительность : 21 м.
Общий поток : 1962 Кбит/сек
Дата кодирования : UTC 2009-01-20 07:25:28
Программа кодирования : mkvmerge v2.2.0 ('Turn It On Again') built on Mar 4 2008 12:58:26
Библиотека кодирования : libebml v0.7.7 + libmatroska v0.8.1

Видео
Идентификатор : 1
Формат : AVC
Формат/Информация : Advanced Video Codec
Профиль формата : Main@L5.1
Параметр CABAC формата : Да
Параметр ReFrames формата : 2 кадры
Идентификатор кодека : V_MPEG4/ISO/AVC
Продолжительность : 21 м.
Битрейт : 1583 Кбит/сек
Ширина : 688 пикс.
Высота : 496 пикс.
Соотношение сторон : 1,387
Частота кадров : 25,000 кадр/сек
Цветовое пространство : YUV
Подвыборка цветности : 4:2:0
Битовая глубина : 8 бит
Тип развёртки : Прогрессивная
Бит/(Пиксели*Кадры) : 0.186
Размер потока : 238 Мбайт (78%)
Библиотека кодирования : x264 core 58 svn-736bm
Настройки программы : cabac=1 / ref=1 / deblock=1:0:0 / analyse=0x1:0x131 / me=hex / subme=5 / brdo=0 / mixed_ref=0 / me_range=16 / chroma_me=1 / trellis=1 / 8x8dct=0 / cqm=0 / deadzone=21,11 / chroma_qp_offset=0 / threads=2 / nr=0 / decimate=1 / mbaff=0 / bframes=2 / b_pyramid=0 / b_adapt=1 / b_bias=0 / direct=1 / wpredb=1 / bime=0 / keyint=250 / keyint_min=25 / scenecut=40(pre) / rc=2pass / bitrate=1583 / ratetol=1.0 / rceq='blurCplx^(1-qComp)' / qcomp=0.60 / qpmin=10 / qpmax=51 / qpstep=4 / cplxblur=20.0 / qblur=0.5 / ip_ratio=1.40 / pb_ratio=1.30
Язык : English

Аудио #1
Идентификатор : 2
Формат : MPEG Audio
Версия формата : Version 1
Профиль формата : Layer 3
Идентификатор кодека : A_MPEG/L3
Идентификатор кодека/Подсказка : MP3
Продолжительность : 21 м.
Вид битрейта : Постоянный
Битрейт : 192 Кбит/сек
Канал(ы) : 2 канала(ов)
Частота : 48,0 КГц
Метод сжатия : С потерями
Размер потока : 29,7 Мбайт (10%)
Заголовок : Russian
Язык : Russian

Аудио #2
Идентификатор : 3
Формат : MPEG Audio
Версия формата : Version 1
Профиль формата : Layer 3
Режим : Joint stereo
Расширение режима : MS Stereo
Идентификатор кодека : A_MPEG/L3
Идентификатор кодека/Подсказка : MP3
Продолжительность : 20 м.
Вид битрейта : Переменный
Битрейт : 192 Кбит/сек
Канал(ы) : 2 канала(ов)
Частота : 48,0 КГц
Метод сжатия : С потерями
Размер потока : 28,3 Мбайт (9%)
Заголовок : English
Библиотека кодирования : LAME3.97
Настройки программы : -m j -V 4 -q 2 -lowpass 18.6 --abr 192
Язык : English

Меню
00:00:00.000 : :Ch. 01 @ 00:00:00
Свернуть
Свернуть
Серии 21 - 24
Видео: H264 - MPEG-4 AVC (part 10) (avc1),640 х 461,25,000 кадр/сек ~1570 Кбит/сек
Audio #0: MPEG Audio at 192 Кбит/сек, 2 канала,48,0 КГц [ru]
Audio #1: MPEG Audio at 192 Кбит/сек, 2 канала,48,0 КГц [en]
MediaInfo
Общее
Формат : Matroska
Размер файла : 303 Мбайт
Продолжительность : 21 м.
Общий поток : 1962 Кбит/сек
Дата кодирования : UTC 2009-01-20 07:25:28
Программа кодирования : mkvmerge v2.2.0 ('Turn It On Again') built on Mar 4 2008 12:58:26
Библиотека кодирования : libebml v0.7.7 + libmatroska v0.8.1

Видео
Идентификатор : 1
Формат : AVC
Формат/Информация : Advanced Video Codec
Профиль формата : Main@L5.1
Параметр CABAC формата : Да
Параметр ReFrames формата : 2 кадры
Идентификатор кодека : V_MPEG4/ISO/AVC
Продолжительность : 21 м.
Битрейт : 1583 Кбит/сек
Ширина : 688 пикс.
Высота : 496 пикс.
Соотношение сторон : 1,387
Частота кадров : 25,000 кадр/сек
Цветовое пространство : YUV
Подвыборка цветности : 4:2:0
Битовая глубина : 8 бит
Тип развёртки : Прогрессивная
Бит/(Пиксели*Кадры) : 0.186
Размер потока : 238 Мбайт (78%)
Библиотека кодирования : x264 core 58 svn-736bm
Настройки программы : cabac=1 / ref=1 / deblock=1:0:0 / analyse=0x1:0x131 / me=hex / subme=5 / brdo=0 / mixed_ref=0 / me_range=16 / chroma_me=1 / trellis=1 / 8x8dct=0 / cqm=0 / deadzone=21,11 / chroma_qp_offset=0 / threads=2 / nr=0 / decimate=1 / mbaff=0 / bframes=2 / b_pyramid=0 / b_adapt=1 / b_bias=0 / direct=1 / wpredb=1 / bime=0 / keyint=250 / keyint_min=25 / scenecut=40(pre) / rc=2pass / bitrate=1583 / ratetol=1.0 / rceq='blurCplx^(1-qComp)' / qcomp=0.60 / qpmin=10 / qpmax=51 / qpstep=4 / cplxblur=20.0 / qblur=0.5 / ip_ratio=1.40 / pb_ratio=1.30
Язык : English

Аудио #1
Идентификатор : 2
Формат : MPEG Audio
Версия формата : Version 1
Профиль формата : Layer 3
Идентификатор кодека : A_MPEG/L3
Идентификатор кодека/Подсказка : MP3
Продолжительность : 21 м.
Вид битрейта : Постоянный
Битрейт : 192 Кбит/сек
Канал(ы) : 2 канала(ов)
Частота : 48,0 КГц
Метод сжатия : С потерями
Размер потока : 29,7 Мбайт (10%)
Заголовок : Russian
Язык : Russian

Аудио #2
Идентификатор : 3
Формат : MPEG Audio
Версия формата : Version 1
Профиль формата : Layer 3
Режим : Joint stereo
Расширение режима : MS Stereo
Идентификатор кодека : A_MPEG/L3
Идентификатор кодека/Подсказка : MP3
Продолжительность : 20 м.
Вид битрейта : Переменный
Битрейт : 192 Кбит/сек
Канал(ы) : 2 канала(ов)
Частота : 48,0 КГц
Метод сжатия : С потерями
Размер потока : 28,3 Мбайт (9%)
Заголовок : English
Библиотека кодирования : LAME3.97
Настройки программы : -m j -V 4 -q 2 -lowpass 18.6 --abr 192
Язык : English

Меню
00:00:00.000 : :Ch. 01 @ 00:00:00
Свернуть
Свернуть

Скриншоты:

Скриншоты
Серии 01-20 и 25-52

Изображение
Изображение
Изображение
Изображение
Изображение

Серии 21 - 24

Изображение
Изображение
Изображение
Изображение
Изображение
Свернуть
_________________
Изображение Изображение
Не в сети
Профиль  
 Добавлено: 2017-06-01 15:52 (спустя 5 лет 5 месяцев)
Стаж: 3 года
Сообщений: 7
накиньте скорости,ребенок просит!
Не в сети
Профиль  
Начать новую темуОтветить на тему  [ Сообщений: 2 ] 
Вы не можете начинать темы
Вы не можете отвечать на сообщения
Вы не можете редактировать свои сообщения
Вы не можете удалять свои сообщения