Правила форума

  • В этом разделе создание новых тем Запрещено.
  • Для создания новых тем пользуйтесь Корневым разделом DVD и HD фильмы.
Начать новую темуОтветить на тему  [ Сообщений: 3 ] 
Торрент файл
Размер: 6.93 GB • Зарегистрирован: 3 года 10 месяцев • Статус: Проверено
Скачан: 43 раза • Желающих скачать: 0 • Поблагодарили: 13 раз
 Раздают: 0  |  0 KB/s  ]   Качают: 0  |  0 KB/s  ] 
 Полного источника не было 3 года 
Сообщения
 Добавлено: 2013-01-25 00:50
Руководитель релиз-группы
Аватара пользователя
Стаж: 7 лет 5 месяцев
Возраст: 31
Сообщений: 3406
Спасибок: 46729
Лайков: 5
Изображение

10 лет спустя
10 Years


Год выпуска: 2012
Страна: США
Слоган: «У любви нет срока давности»
Жанр: драма, мелодрама, комедия
Продолжительность: 01:36:29
Перевод: Профессиональный (полное дублирование)
Режиссер: Джеми Линден
Сценарий: Джеми Линден
Продюсер: Марти Бауэн, Рейд Каролин, Вик Годфри, Ченнинг Татум, Эрик Горс
Оператор: Стивен Фирберг
Композитор: Чад Фишер
В ролях: Ченнинг Татум, Дженна Деван, Джастин Лонг, Макс Мингелла, Оскар Айзек, Крис Прэтт, Эри Грейнор, Дэниэл Скотт Лампкин мл., Лили Лампкин, Скотт Портер, Эйко Ниджо, Майк Миллер
Описание: 10 лет спустя бывшие одноклассники собираются, чтобы оторваться по полной и поставить на уши весь город. Море выпивки, веселья и воспоминаний, но теперь все по-взрослому! Красавчик Джейк прибыл на вечеринку вместе с ослепительной девушкой, они - идеальная пара, и они счастливы в любви. Но этой ночью на глаза Джейку попадается его первая любовь, прошлое притягивает его и стучится в память с новой силой. Сможет ли он сделать правильный выбор? И правда ли, что у любви нет срока давности?
Изображение
MPAA: Изображение
Релиз: Изображение Раздача группы: Изображение
Качество: DVD9
Формат: DVD Video
Видео: MPEG2; PAL 16:9 (720x576)
Аудио: Dolby AC3, 6 ch, 448 Kbps Russian
Субтитры: нет
Дополнительно: нет
DVDInfo
    Title: 10.let .spustya.2012.D.DVD9.IRONCLUB
    Size: 6.93 Gb ( 7 264 178,00 KBytes ) - DVD-9
    Enabled regions: 1, 2, 3, 4, 5, 6, 7, 8

    VTS_01 :
    Play Length: 01:36:29
    Video: PAL 16:9 (720x576) VBR, Auto Letterboxed
    Audio:
    Russian (Dolby AC3, 6 ch)
Свернуть
mediainfo
    Формат : MPEG-PS
    Размер файла : 1024 Мбайт
    Продолжительность : 14 м.
    Общий поток : 9978 Кбит/сек

    Видео
    Идентификатор : 224 (0xE0)
    Формат : MPEG Video
    Версия формата : Version 2
    Профиль формата : Main@Main
    Параметр BVOP формата : Да
    Параметр матрицы формата : Выборочная
    Продолжительность : 14 м.
    Битрейт : 9000 Кбит/сек
    Ширина : 720 пикселей
    Высота : 576 пикселей
    Соотношение сторон : 16:9
    Частота кадров : 25,000 кадров/сек
    Стандарт вещания : PAL
    Цветовое пространство : YUV
    Субдискретизация насыщенности : 4:2:0
    Битовая глубина : 8 бит
    Тип развёртки : Чересстрочная
    Порядок развёртки : Верхнее поле первое
    Метод сжатия : С потерями
    Бит/(Пиксели*Кадры) : 0.868
    Размер потока : 958 Мбайт (94%)

    Аудио
    Идентификатор : 189 (0xBD)-128 (0x80)
    Формат : AC-3
    Формат/Информация : Audio Coding 3
    Расширение режима : CM (complete main)
    Режим смешивания : DVD-Video
    Продолжительность : 14 м.
    Вид битрейта : Постоянный
    Битрейт : 448 Кбит/сек
    Каналы : 6 каналов
    Расположение каналов : Front: L C R, Side: L R, LFE
    Частота : 48,0 КГц
    Битовая глубина : 16 бит
    Метод сжатия : С потерями
    Размер потока : 46,0 Мбайт (4%)

    Меню

Свернуть
Знаете ли Вы, что...
  • Крис Пайн, Анна Фэрис, Меган Фокс и Тейлор Момсен рассматривались на различные роли в фильме на ранних стадиях его создания.
Свернуть
Скриншоты

меню
Изображение

Изображение
Свернуть
Изображение

Изображение

Изображение

Изображение
Свернуть
Не в сети
Профиль  
 Добавлено: 2013-01-27 08:38 (спустя 2 дня 7 часов)
Аватара пользователя
Стаж: 6 лет 8 месяцев
Сообщений: 128
Лайков: 25
Тоска зеленая. Как будто спросил у человека из вежливости как дела, и он тебе полтора часа про них рассказывает
Не в сети
Профиль  
 Добавлено: 2013-02-06 13:43 (спустя 10 дней)
Стаж: 5 лет 3 месяца
Сообщений: 150
Лайков: 2
Фильм полнейший отстой!Но больше всего в этом фильме меня бесили два друга,один из которых помогал клеить тёлок второму!Фуу!Не советую!
Не в сети
Профиль  
Начать новую темуОтветить на тему  [ Сообщений: 3 ] 
Вы не можете начинать темы
Вы не можете отвечать на сообщения
Вы не можете редактировать свои сообщения
Вы не можете удалять свои сообщения