Правила форума

  • В этом разделе создание новых тем Запрещено.
  • Для создания новых тем пользуйтесь Корневым разделом DVD и HD фильмы.
Начать новую темуОтветить на тему  [ Сообщений: 4 ] 
Торрент файл
Размер: 4.37 GB • Зарегистрирован: 4 года 3 месяца • Статус: Проверено
Скачан: 35 раз • Желающих скачать: 0 • Поблагодарили: 11 раз
 Раздают: 0  |  0 KB/s  ]   Качают: 0  |  0 KB/s  ] 
 Полного источника не было 3 года 2 месяца 
Сообщения
 Добавлено: 2012-08-29 19:38
DVD Release Group
Аватара пользователя
Стаж: 7 лет 1 месяц
Сообщений: 3569
Спасибок: 247804
Лайков: 1020
1911

Xinhai geming


Изображение


Год выпуска: 2012
Страна: Китай, Гонконг
Жанр: Боевик, драма, приключения, военный, история
Продолжительность: 01:35:08
Перевод: Профессиональный (многоголосый закадровый)
Cубтитры: Русские
Режиссер: Джеки Чан, Чжан Ли
В ролях: Джеки Чан, Ли Бинбин, Уинстон Чао, Джоан Чэнь, Джейси Чан, Ху Гэ, Минг Ху, Хуанг Жи Жонг, Цзян Вэньли
Описание: Китай, 1911 г. Период политической нестабильности и революционных настроений в государстве. На фоне общей неразберихи и неопределённости, некто Сунь Ятсен поднимает восстание и направляет мощь своих войск с одной единственной целью — свергнуть правящую династию Цин и установить новый, социально направленный режим управления республикой.
Кинопоиск: 6.1 (518)
IMDb: 6.0 (2253)
Дополнительно:
Исходник: DVD9 (5.55 GB) [лицензия, PAL 16:9].
Убрано: Создатели и исполнители, смотрите на DVD, фотогалерея, заставки и предупреждение.
Сжатие фильма 18% сжатия (без учета ручного перераспределения битрейта, за счет большего сжатия конечных титров).
Работоспособность проверена на софтовом плеере Windows Media и бытовом LG.
Качество: DVD5 (сжатый)
Формат: DVD Video
Видео кодек: MPEG2
Аудио кодек: AC3
Видео: 720х576 25fps 5167Kbps
Аудио:
Аудио Rus: 48kHz 6ch 448Kbps
Аудио Eng: 48kHz 6ch 448Kbps
Аудио Chi: 48kHz 6ch 448Kbps
"MediaInfo"
Формат : MPEG-PS
Размер файла : 1024 Мбайт
Продолжительность : 21 м.
Режим общего битрейта : Переменный
Общий поток : 6643 Кбит/сек

Видео
Идентификатор : 224 (0xE0)
Формат : MPEG Video
Версия формата : Version 2
Профиль формата : Main@Main
Параметр BVOP формата : Да
Параметр матрицы формата : Выборочная
Продолжительность : 21 м.
Вид битрейта : Переменный
Битрейт : 5167 Кбит/сек
Максимальный битрейт : 8456 Кбит/сек
Ширина : 720 пикселей
Высота : 576 пикселей
Соотношение сторон : 16:9
Частота кадров : 25,000 кадров/сек
Стандарт вещания : PAL
Цветовое пространство : YUV
Субдискретизация насыщенности : 4:2:0
Битовая глубина : 8 бит
Тип развёртки : Прогрессивная
Порядок развёртки : Нижнее поле первое
Метод сжатия : С потерями
Бит/(Пиксели*Кадры) : 0.498
Размер потока : 796 Мбайт (78%)

Аудио #1
Идентификатор : 189 (0xBD)-128 (0x80)
Формат : AC-3
Формат/Информация : Audio Coding 3
Расширение режима : CM (complete main)
Режим смешивания : DVD-Video
Продолжительность : 21 м.
Вид битрейта : Постоянный
Битрейт : 448 Кбит/сек
Каналы : 6 каналов
Расположение каналов : Front: L C R, Side: L R, LFE
Частота : 48,0 КГц
Битовая глубина : 16 бит
Метод сжатия : С потерями
Размер потока : 69,0 Мбайт (7%)

Аудио #2
Идентификатор : 189 (0xBD)-129 (0x81)
Формат : AC-3
Формат/Информация : Audio Coding 3
Расширение режима : CM (complete main)
Режим смешивания : DVD-Video
Продолжительность : 21 м.
Вид битрейта : Постоянный
Битрейт : 448 Кбит/сек
Каналы : 6 каналов
Расположение каналов : Front: L C R, Side: L R, LFE
Частота : 48,0 КГц
Битовая глубина : 16 бит
Метод сжатия : С потерями
Размер потока : 69,0 Мбайт (7%)

Аудио #3
Идентификатор : 189 (0xBD)-130 (0x82)
Формат : AC-3
Формат/Информация : Audio Coding 3
Расширение режима : CM (complete main)
Режим смешивания : DVD-Video
Продолжительность : 21 м.
Вид битрейта : Постоянный
Битрейт : 448 Кбит/сек
Каналы : 6 каналов
Расположение каналов : Front: L C R, Side: L R, LFE
Частота : 48,0 КГц
Битовая глубина : 16 бит
Метод сжатия : С потерями
Размер потока : 69,0 Мбайт (7%)

Текст
Идентификатор : 189 (0xBD)-32 (0x20)
Формат : RLE
Формат/Информация : Run-length encoding
Режим смешивания : DVD-Video
Продолжительность : 21 м.
Задержка видео : 5 с. 840 мс.

Меню
Свернуть

"Скриншоты"
Изображение
Изображение
Изображение
Изображение
Изображение
Изображение
Изображение
Изображение
Изображение
Изображение
Изображение
Свернуть

Раздача группы:
Изображение
Не в сети
Профиль  
 Добавлено: 2012-08-31 15:07 (спустя 1 день 19 часов)
Аватара пользователя
Стаж: 6 лет 6 месяцев
Сообщений: 19963
Спасибок: 721
Лайков: 461
Так! Стоп-стоп-стоп!! Это тот фильм с Джеки который должен быть выйти в кинотеатрах в декабре, если да, то откуда двд??? Если нет прошу поправить! :a_g_a:
_________________
It was I'am ... :jn_pu_sk:
Медали и Ордена
ИзображениеИзображение
Свернуть
Не в сети
Профиль  
 Добавлено: 2012-08-31 18:05 (спустя 2 часа 57 минут)
DVD Release Group
Аватара пользователя
Стаж: 7 лет 1 месяц
Сообщений: 3569
Спасибок: 247804
Лайков: 1020
*ЖОРА*
Премьера (мир): 23 сентября 2011
Релиз на DVD: 29 августа 2012
Не в сети
Профиль  
 Добавлено: 2012-08-31 20:44 (спустя 2 часа 39 минут)
Аватара пользователя
Стаж: 6 лет 6 месяцев
Сообщений: 19963
Спасибок: 721
Лайков: 461
rastor аааа. Я сно! :a_g_a:
_________________
It was I'am ... :jn_pu_sk:
Медали и Ордена
ИзображениеИзображение
Свернуть
Не в сети
Профиль  
Начать новую темуОтветить на тему  [ Сообщений: 4 ] 
Вы не можете начинать темы
Вы не можете отвечать на сообщения
Вы не можете редактировать свои сообщения
Вы не можете удалять свои сообщения