Правила форума

  • В этом разделе создание новых тем Запрещено.
  • Для создания новых тем пользуйтесь Корневым разделом DVD и HD фильмы.
Начать новую темуОтветить на тему  [ Сообщений: 4 ] 
Торрент файл
Размер: 4.35 GB • Зарегистрирован: 4 года 9 месяцев • Статус: Проверено
Скачан: 208 раз • Желающих скачать: 0 • Поблагодарили: 39 раз
 Раздают: 0  |  0 KB/s  ]   Качают: 0  |  0 KB/s  ] 
 Полного источника не было 3 года 2 месяца 
Сообщения
 Добавлено: 2012-02-17 15:22
Руководитель релиз-группы
Аватара пользователя
Стаж: 7 лет 4 месяца
Возраст: 31
Сообщений: 3407
Спасибок: 46728
Лайков: 5
Изображение

2016: Конец ночи
Hell


Год выпуска: 2011
Страна: Германия, Швейцария
Слоган: «Солнце нас сожжёт»
Жанр: ужасы, фантастика, триллер
Продолжительность: 01:25:40
Перевод: Профессиональный (полное дублирование)
Режиссер: Тим Фельбаум
Сценарий: Тим Фельбаум, Оливер Каль, Томас Вёбке
Продюсер: Габриэль Уолтер, Томас Вёбке, Роланд Эммерих
Оператор: Маркус Фёрдерер
Композитор: Лоренц Дэнжел
В ролях: Ханна Херцшпрунг, Стипе Эрчег, Михаэль Кранц, Ангела Винклер, Ларс Айдингер, Лило Баур, Энн Сара Хартунг, Лиза Викари, Нино Бёло, Кристоф Гоглер
Описание: Перед тем как окончательно погаснуть, Солнце увеличилось до невероятных размеров и выжгло всю Землю, превратив ее в непригодную для жизни пустыню.
Среди немногих выживших - группа молодых людей, которые отправились в горы в поисках воды и пищи. Но эта мысль посетила не только их, и очень скоро ребята оказываются втянуты в безжалостную борьбу за выживание.
Изображение
Релиз: Изображение Раздача группы: Изображение
Качество: DVD5 (сжатый)
Формат: DVD Video
Видео: MPEG2; PAL 16:9 (720x576)
Аудио: Dolby AC3, 6 ch, 384 Kbps Russian
Субтитры: русские
Дополнительная информация :
Исходник : DVD9 (6.4 Гб) [лицензия, PAL 16:9]
Убрано : допы, реклама, заставки, предупреждения, Russian (Dolby AC3, 2 ch)
Сжатие фильма : 18.5 % сжатия (без учета ручного перераспределения битрейта, за счет большего сжатия конечных титров)
использовались программы
    DVDRemakePro
    Photoshop
    MuxMan
    Rebuilder и CCE (Cinema Craft Encoder), 5 проходов
    Работоспособность проверена на софтовом плеере Windows Media и бытовом LG
Свернуть
DVDInfo
    Title: 2016.Konec.nochi_2011_DVD5.[R.G.Daredevil]
    Size: 4.35 Gb ( 4 557 110,00 KBytes ) - DVD-5
    Enabled regions: 1, 2, 3, 4, 5, 6, 7, 8

    VTS_01 :
    Play Length: 00:00:00+01:25:40+{00:00:00}
    Video: PAL 16:9 (720x576) VBR, Auto Letterboxed
    Audio:
    Russian (Dolby AC3, 6 ch)
    Russian (Dolby AC3, 2 ch)
    Subtitles:
    Russian

    VTS_02 :
    Play Length: 00:00:00+00:00:00+00:00:00
    Video: PAL 16:9 (720x576) VBR, Auto Letterboxed
    Audio:
    Russian (Dolby AC3, 6 ch)

    VTS_03 :
    Play Length: 00:00:00+00:00:01+{00:00:00}+{00:00:00}+00:00:01+{00:00:00}
    Video: PAL 16:9 (720x576) VBR, Auto Letterboxed
    Audio:
    Russian (Dolby AC3, 2 ch)

    VTS_04 :
    Play Length: 00:00:00+00:00:01+{00:00:00}
    Video: PAL 16:9 (720x576) VBR, Auto Letterboxed
    Audio:
    Russian (Dolby AC3, 2 ch)

    VTS_05 :
    Play Length: 00:00:00+00:00:01
    Video: PAL 4:3 (720x576) VBR
    Audio:
    Russian (Dolby AC3, 2 ch)
Свернуть
mediainfo
    Формат : MPEG-PS
    Размер файла : 1024 Мбайт
    Продолжительность : 18 м.
    Режим общего битрейта : Переменный
    Общий поток : 7655 Кбит/сек
    Библиотека кодирования : encoded by TMPGEnc (ver. 2.524.63.181)

    Видео
    Идентификатор : 224 (0xE0)
    Формат : MPEG Video
    Версия формата : Version 2
    Профиль формата : Main@Main
    Параметр BVOP формата : Да
    Параметр матрицы формата : Выборочная
    Продолжительность : 18 м.
    Вид битрейта : Переменный
    Битрейт : 7119 Кбит/сек
    Ширина : 720 пикселей
    Высота : 576 пикселей
    Соотношение сторон : 16:9
    Частота кадров : 25,000 кадров/сек
    Стандарт вещания : PAL
    Цветовое пространство : YUV
    Субдискретизация насыщенности : 4:2:0
    Битовая глубина : 8 бит
    Метод сжатия : С потерями
    Бит/(Пиксели*Кадры) : 0.687
    Размер потока : 952 Мбайт (93%)
    Библиотека кодирования : TMPGEnc 2.524.63.181

    Аудио
    Идентификатор : 189 (0xBD)-128 (0x80)
    Формат : AC-3
    Формат/Информация : Audio Coding 3
    Расширение режима : CM (complete main)
    Режим смешивания : DVD-Video
    Продолжительность : 18 м.
    Вид битрейта : Постоянный
    Битрейт : 384 Кбит/сек
    Каналы : 6 каналов
    Расположение каналов : Front: L C R, Side: L R, LFE
    Частота : 48,0 КГц
    Битовая глубина : 16 бит
    Метод сжатия : С потерями
    Задержка видео : 6 мс.
    Размер потока : 51,3 Мбайт (5%)

    Текст
    Идентификатор : 189 (0xBD)-32 (0x20)
    Формат : RLE
    Формат/Информация : Run-length encoding
    Режим смешивания : DVD-Video

    Меню
Свернуть
Скриншоты

меню
Изображение
Изображение
Изображение
Свернуть
Изображение
Изображение
Изображение
Изображение
Свернуть
Не в сети
Профиль  
 Добавлено: 2012-02-18 16:47 (спустя 1 день 1 час)
Кинокомментатор
Аватара пользователя
Стаж: 9 лет
Сообщений: 1331
Лайков: 52
как кино?)
Не в сети
Профиль  
 Добавлено: 2012-02-18 20:22 (спустя 3 часа)
Аватара пользователя
Стаж: 6 лет 7 месяцев
Сообщений: 564
Спасибок: 1110
Лайков: 3
Что это вообще такое?? О_О??? :sh_ok: :sh_ok: :sh_ok:
Жанр: ужасы, фантастика, триллер
я весь фильм ждал напряженного момента, я весь фильм надеялся на что то, и тут раз и титры пошли....

мне жаль времени потраченного за просмотром данного фильма, фильм полный шлак!!!
Не в сети
Профиль  
 Добавлено: 2012-03-10 15:23 (спустя 20 дней)
Аватара пользователя
Стаж: 7 лет 10 месяцев
Сообщений: 298
Лайков: 1
Шлак. Без начала и конца. А в некоторых моментах вообще чуть не стошнило.
Не в сети
Профиль  
Начать новую темуОтветить на тему  [ Сообщений: 4 ] 
Вы не можете начинать темы
Вы не можете отвечать на сообщения
Вы не можете редактировать свои сообщения
Вы не можете удалять свои сообщения