Правила форума

  • В этом разделе создание новых тем Запрещено.
  • Для создания новых тем пользуйтесь Корневым разделом DVD и HD фильмы.
Начать новую темуОтветить на тему  [ Сообщений: 4 ] 
Торрент файл
Размер: 4.23 GB • Зарегистрирован: 3 года 7 месяцев • Статус: Проверено
Скачан: 451 раз • Желающих скачать: 0 • Поблагодарили: 102 раза
 Раздают: 0  |  0 KB/s  ]   Качают: 0  |  0 KB/s  ] 
 Полного источника не было 44 минуты 
Сообщения
 Добавлено: 2013-04-26 19:37
Руководитель релиз-группы
Аватара пользователя
Стаж: 7 лет 5 месяцев
Возраст: 31
Сообщений: 3406
Спасибок: 46729
Лайков: 5
Изображение

21 и больше
21 & Over


Год выпуска: 2013
Страна: США
Слоган: «Наконец-то»
Жанр: комедия
Продолжительность: 01:29:20
Перевод: Профессиональный (полное дублирование) [лицензия]
Режиссер: Джон Лукас, Скотт Мур
Сценарий: Джон Лукас, Скотт Мур
Продюсер: Хьюго Шонг, Энди Ян, Дэвид Хоберман, Райан Кэвэна, Тодд Либерман
Оператор: Терри Стэйси
Композитор: Лайл Уоркмэн
В ролях: Майлз Теллер, Скайлар Эстин, Джастин Чон, Сара Райт, Джонатан Кельтц, Франсуа Чау, Расселл Ходжкинсон, Дэниэл Буко, Расселл Меркадо, Джози Лорен, Кристьенн Кастельянос, Дастин Ибарра
Бюджет: $13 000 000
Описание: Двое друзей подбивают третьего отметить его 21-ый день рождения прямо накануне важного экзамена в медицинский колледж. Никто не замечает, как одна кружка пива превращается в море выпивки, а вечеринка - в бурное и незабываемое приключение с музыкой и девчонками. И где же они окажутся утром?
Изображение
MPAA: Изображение
Релиз: Изображение Раздача группы: Изображение
Качество: DVD5
Формат: DVD Video
Видео: MPEG2; PAL 16:9 (720x576)
Аудио #1: Dolby AC3, 6 ch, 384 Kbps Russian
Аудио #2: Dolby AC3, 2 ch, 192 Kbps Russian
Субтитры: нет
Дополнительно: Скоро на DVD
DVDInfo
    Title: 21.i.bolshe.2013.D.DVD5
    Size: 4.23 Gb ( 4 436 914,00 KBytes ) - DVD-5
    Enabled regions: 1, 2, 3, 4, 5, 6, 7, 8

    VTS_01 :
    Play Length: 01:29:19
    Video: PAL 16:9 (720x576) VBR, Auto Letterboxed
    Audio:
    Russian, AC3, 3/2 (L,C,R,SL,SR)+LFE ch, 384 kbps, Delay 0 mSec
    Russian, AC3, 2/0 (L,R) ch, 192 kbps, Delay 0 mSec

    VTS_02 :
    Play Length: 00:09:36
    Video: PAL 16:9 (720x576) VBR, Auto Letterboxed
    Audio:
    Not specified (Dolby AC3, 2 ch)
Свернуть
mediainfo
    Формат : MPEG-PS
    Размер файла : 1024 Мбайт
    Продолжительность : 22 м.
    Режим общего битрейта : Переменный
    Общий поток : 6253 Кбит/сек

    Видео
    Идентификатор : 224 (0xE0)
    Формат : MPEG Video
    Версия формата : Version 2
    Профиль формата : Main@Main
    Параметр BVOP формата : Да
    Параметр матрицы формата : Выборочная
    Продолжительность : 22 м.
    Вид битрейта : Переменный
    Битрейт : 5552 Кбит/сек
    Максимальный битрейт : 9000 Кбит/сек
    Ширина : 720 пикселей
    Высота : 576 пикселей
    Соотношение сторон : 16:9
    Частота кадров : 25,000 кадров/сек
    Стандарт вещания : PAL
    Цветовое пространство : YUV
    Субдискретизация насыщенности : 4:2:0
    Битовая глубина : 8 бит
    Тип развёртки : Прогрессивная
    Порядок развёртки : Верхнее поле первое
    Метод сжатия : С потерями
    Бит/(Пиксели*Кадры) : 0.536
    Размер потока : 909 Мбайт (89%)

    Аудио #1
    Идентификатор : 189 (0xBD)-128 (0x80)
    Формат : AC-3
    Формат/Информация : Audio Coding 3
    Расширение режима : CM (complete main)
    Режим смешивания : DVD-Video
    Продолжительность : 22 м.
    Вид битрейта : Постоянный
    Битрейт : 384 Кбит/сек
    Каналы : 6 каналов
    Расположение каналов : Front: L C R, Side: L R, LFE
    Частота : 48,0 КГц
    Битовая глубина : 16 бит
    Метод сжатия : С потерями
    Размер потока : 62,9 Мбайт (6%)

    Аудио #2
    Идентификатор : 189 (0xBD)-129 (0x81)
    Формат : AC-3
    Формат/Информация : Audio Coding 3
    Расширение режима : CM (complete main)
    Режим смешивания : DVD-Video
    Продолжительность : 22 м.
    Вид битрейта : Постоянный
    Битрейт : 192 Кбит/сек
    Каналы : 2 канала
    Расположение каналов : Front: L R
    Частота : 48,0 КГц
    Битовая глубина : 16 бит
    Метод сжатия : С потерями
    Размер потока : 31,4 Мбайт (3%)

    Меню

Свернуть
Знаете ли Вы, что...
  • Джастин Чон на самом деле на десять лет старше своего героя (на момент выхода фильма).
  • Роль Франсуа Чау - доктор Чанг - это дань уважения доктору Пьеру Чангу, персонажу из телесериала «Остаться в живых» (2004), которого также играл Чау.
Свернуть
Скриншоты

меню
Изображение

Изображение

Изображение
Свернуть
Изображение

Изображение

Изображение
Свернуть
Не в сети
Профиль  
 Добавлено: 2013-04-26 22:34 (спустя 2 часа 56 минут)
Стаж: 5 лет 10 месяцев
Сообщений: 14
:co_ol: угарный фильмец, спасибо!!!
Не в сети
Профиль  
 Добавлено: 2013-05-06 21:06 (спустя 9 дней)
Аватара пользователя
Стаж: 6 лет 4 месяца
Возраст: 28
Сообщений: 50
смотрим.. :)
Не в сети
Профиль  
 Добавлено: 2013-05-10 18:38 (спустя 3 дня)
Кинокомментатор
Аватара пользователя
Стаж: 9 лет 1 месяц
Сообщений: 1332
Лайков: 54
тупое кино про тупых парней)) вот и всё!) как Мальчишник в вегасе, только про общагу и подешевле) но очень таки весело!) мне понравилось:) в принципе чего ждал, то и получил:)
7/10
_________________
Я ВКонтакте
Не в сети
Профиль  
Начать новую темуОтветить на тему  [ Сообщений: 4 ] 
Вы не можете начинать темы
Вы не можете отвечать на сообщения
Вы не можете редактировать свои сообщения
Вы не можете удалять свои сообщения