Правила форума

  • В этом разделе создание новых тем Запрещено.
  • Для создания новых тем пользуйтесь Корневым разделом DVD и HD фильмы.
Начать новую темуОтветить на тему  [ Сообщений: 3 ] 
Торрент файл
Размер: 7.03 GB • Зарегистрирован: 5 лет 3 месяца • Статус: Проверено
Скачан: 135 раз • Желающих скачать: 0 • Поблагодарили: 20 раз
 Раздают: 0  |  0 KB/s  ]   Качают: 0  |  0 KB/s  ] 
 Полного источника не было 3 года 2 месяца 
Сообщения
 Добавлено: 2011-08-23 11:40
Аватара пользователя
Стаж: 5 лет 6 месяцев
Возраст: 30
Сообщений: 353
Спасибок: 7455
2199: Космическая одиссея / Space Battleship Yamato

Изображение


Год выпуска: 2010
Страна: Япония (Abe Shuji, Chubu-nippon Broadcasting Company (CBC), Hakuhodo DY Media Partners)
Слоган: «Последняя надежда человечества...»
Жанр: фантастика, боевик, драма, приключения
Продолжительность: 02:12:56
Перевод: Профессиональный (дубляж)
Дублеры: Иван Жарков, Дмитрий Курта
Субтитры: Нет

Режиссёр: Такаши Ямазаки / Takashi Yamazaki
Сценарист: Лэйдзи Матсумото, Шимако Сато, Ёсинобу Нисидзаки
Продюсер: Тошиаки Наказава, Казуя Хамана
Оператор: Козо Сибадзаки
Композитор: Наоки Сато

В ролях: Такуя Кимура, Меиса Куроки, Такуми Саито, Хироюки Икеучи, Наото Такэнака, Теруюки Кагава, Цутому Ямазаки, Масато Ибу, Шиносуке Ичикава, Тошиюки Нишида

Описание: Космический линкор «Ямато» отправляется в опасную космическую экспедицию. Его цель — планета Искандер, которая является последней надеждой разоренной и отравленной радиацией, планеты Земля. Война с далекими пришельцами не прошла бесследно: бескрайние пустыни и разрушенные города, повсеместные мутации, высокий радиационный уровень атмосферы. Планета Искандер хранит нейтрализатор и только он может помочь нашей Родине…

Доп.информация: нет
Мировая премьера: 1 декабря 2010
Премьера в России: 21 июля 2011, «Кинопром»
Бюджет: $25 000 000
Кассовые сборы: $49 710 000

Изображение Изображение Изображение

Качество: DVD9 R5
Формат: DVD Video
Видео кодек: MPEG2
Аудио кодек: AC3 (Dolby Digital)
Видео: PAL 16:9 (720x576(0.644)) MPEG Video, 25,000 кадр/сек, 6682 Кбит/сек
Аудио #1: Russian (Dolby AC3, 6 ch) 448 Кбит/сек, 48,0 КГц [Профессиональный (дубляж)]
Субтитры: Нет

"DVDInfo"
Title: Рабочий
Size: 7.03 Gb ( 7 373 656 KBytes ) - DVD-9
Enabled regions: 1, 2, 3, 4, 5, 6, 7, 8

VTS_01 :
Play Length: 00:00:16
Video: PAL 16:9 (720x576) VBR, Auto Letterboxed
Audio:
Russian (Dolby AC3, 2 ch)

VTS_02 :
Play Length: 02:12:56
Video: PAL 16:9 (720x576) VBR, Auto Letterboxed
Audio:
Russian (Dolby AC3, 6 ch)

Menu Video:
NTSC 4:3 (720x480) VBR
Auto Pan&Scan, Auto Letterboxed
Menu Russian Language Unit :
Root Menu
Chapter (PTT) Menu
Свернуть

"MediaInfo"
Общее
Полное имя : G:\Новинки 2011\2199.Kosmicheskaja.odisseja.2010.DVD9\VIDEO_TS\VTS_02_1.VOB
Формат : MPEG-PS
Размер файла : 1024 Мбайт
Продолжительность : 19 м.
Общий поток : 7275 Кбит/сек

Видео
Идентификатор : 224 (0xE0)
Формат : MPEG Video
Версия формата : Version 2
Профиль формата : Main@Main
Параметр BVOP формата : Да
Параметр матрицы формата : Выборочная
Продолжительность : 19 м.
Вид битрейта : Переменный
Битрейт : 6682 Кбит/сек
Максимальный битрейт : 8500 Кбит/сек
Ширина : 720 пикселей
Высота : 576 пикселей
Соотношение сторон : 16:9
Частота кадров : 25,000 кадров/сек
Стандарт вещания : PAL
Цветовое пространство : YUV
Субдискретизация насыщенности : 4:2:0
Битовая глубина : 8 бит
Тип развёртки : Прогрессивная
Метод сжатия : С потерями
Бит/(Пиксели*Кадры) : 0.644
Размер потока : 940 Мбайт (92%)

Аудио
Идентификатор : 189 (0xBD)-128 (0x80)
Формат : AC-3
Формат/Информация : Audio Coding 3
Расширение режима : CM (complete main)
Режим смешивания : DVD-Video
Продолжительность : 19 м.
Вид битрейта : Постоянный
Битрейт : 448 Кбит/сек
Каналы : 6 каналов
Расположение каналов : Front: L C R, Side: L R, LFE
Частота : 48,0 КГц
Битовая глубина : 16 бит
Метод сжатия : С потерями
Размер потока : 63,0 Мбайт (6%)
Свернуть

Скриншоты
Скриншоты меню
Изображение
Изображение
Свернуть
Изображение
Изображение
Изображение
Изображение
Изображение
Изображение
Изображение
Изображение
Свернуть

Знаете ли Вы, что...
Фильм снят по аниме «Космический линкор «Ямато».
Свернуть

Изображение
Не в сети
Профиль  
 Добавлено: 2011-08-23 19:05 (спустя 7 часов)
Стаж: 8 лет 9 месяцев
Сообщений: 25
как фильмец то отпишитесь...?
Не в сети
Профиль  
 Добавлено: 2011-09-08 19:35 (спустя 16 дней)
Аватара пользователя
Стаж: 5 лет 10 месяцев
Возраст: 32
Сообщений: 50
Спасибок: 3
писец, 100% самопожертвование японцев. не смотреть
_________________
Изображение
Изображение
Не в сети
Профиль  
Начать новую темуОтветить на тему  [ Сообщений: 3 ] 
Вы не можете начинать темы
Вы не можете отвечать на сообщения
Вы не можете редактировать свои сообщения
Вы не можете удалять свои сообщения