Правила форума

  • В этом разделе создание новых тем Запрещено.
  • Для создания новых тем пользуйтесь Корневым разделом DVD и HD фильмы.
Начать новую темуОтветить на тему  [ Сообщений: 2 ] 
Торрент файл
Размер: 3.84 GB • Зарегистрирован: 3 года 10 месяцев • Статус: Проверено
Скачан: 58 раз • Желающих скачать: 0 • Поблагодарили: 13 раз
 Раздают: 0  |  0 KB/s  ]   Качают: 0  |  0 KB/s  ] 
 Полного источника не было 1 год 11 месяцев 
Сообщения
 Добавлено: 2013-02-03 16:09
Руководитель релиз-группы
Аватара пользователя
Стаж: 7 лет 5 месяцев
Возраст: 31
Сообщений: 3406
Спасибок: 46729
Лайков: 5
Изображение

30 ночей паранормального явления с одержимой девушкой с татуировкой дракона
30 Nights of Paranormal Activity with the Devil Inside the Girl with the Dragon Tattoo


Год выпуска: 2012
Страна: США
Жанр: комедия
Продолжительность: 01:20:09
Перевод: Профессиональный (многоголосый, закадровый)
Режиссер: Крэйг Мосс
Сценарий: Крэйг Мосс
Продюсер: Джим Басфилд, Бен Фейнголд, Эш Р. Шах, Эми Джарвела
Оператор: Руди Харбон
Композитор: Тодд Хаберман
В ролях: Кэтрин Фиоре, Флип Шульц, Оливия Аси, Артуро Дель Пуэрто, Дэнни Вудберн, Френч Стюарт, Питер Гилрой, Тайлер Филлипс, Стив Гликман, Ребекка Энн Джонсон, Гэри Сервантес, Тина Каскиани
Бюджет: $3 000 000
Описание: Когда молодая семья, которая никак не может прекратить снимать себя на камеру, переезжает в дом, который оказывается населенным призраками, они встречаются с множеством жутких персонажей - среди них президент охотник на вампиров, который хочет «освободить» их дочь с татуировкой дракона. С помощью энергичных «братьев-призраков» семья пытается разгадать тайну дома с привидениями.
Изображение
Релиз: Изображение Раздача группы: Изображение
Качество: DVD5
Формат: DVD Video
Видео: MPEG2; PAL 16:9 (720x576)
Аудио #1: Dolby AC3, 6 ch, 384 Kbps Russian
Аудио #2: Dolby AC3, 6 ch, 448 Kbps English
Субтитры: Russian, English, Arabic, Estonian, Greek, Islenska, Latvian, Lithuanian, Portugues, Romanian, Turkish
Дополнительно: TBA
DVDInfo
    Title: 30.nochej.paranormalnogo.javlenija.s.oderzhimoj.devushkoj.s.tatuirovkoj.drakona.2012.NNM.DVD
    Size: 3.84 Gb ( 4 029 772,00 KBytes ) - DVD-5
    Enabled regions: 1, 2, 3, 4, 5, 6, 7, 8

    VTS_01 :
    Play Length: 01:16:44+00:00:00
    Video: PAL 16:9 (720x576) VBR, Auto Letterboxed
    Audio:
    English (Dolby AC3, 6 ch)
    Russian (Dolby AC3, 6 ch)
    Subtitles:
    English
    Russian
    Arabic
    Estonian
    Greek
    Islenska
    Latvian
    Lithuanian
    Portugues
    Romanian
    Turkish
    Russian

    VTS_02 :
    Play Length: 00:00:23
    Video: PAL 16:9 (720x576) VBR, Auto Letterboxed
    Audio:
    Not specified (Dolby AC3, 6 ch)

    VTS_03 :
    Play Length: 00:07:48
    Video: PAL 16:9 (720x576) VBR, Auto Letterboxed
    Audio:
    English (Dolby AC3, 2 ch)
    Subtitles:
    English
    Russian
    Arabic
    Estonian
    Greek
    Islenska
    Latvian
    Lithuanian
    Portugues
    Romanian
    Turkish
    Russian

    VTS_04 :
    Play Length: 00:00:39+00:01:02+00:01:02+00:01:02
    Video: PAL 16:9 (720x576) VBR, Auto Letterboxed
    Audio:
    English (Dolby AC3, 2 ch)
    Subtitles:
    Not specified
    Russian
    Arabic
    Estonian
    Greek
    Islenska
    Latvian
    Lithuanian
    Portugues
    Romanian
    Turkish
Свернуть
mediainfo
    Формат : MPEG-PS
    Размер файла : 1024 Мбайт
    Продолжительность : 22 м.
    Режим общего битрейта : Переменный
    Общий поток : 6463 Кбит/сек

    Видео
    Идентификатор : 224 (0xE0)
    Формат : MPEG Video
    Версия формата : Version 2
    Профиль формата : Main@Main
    Параметр BVOP формата : Да
    Параметр матрицы формата : Выборочная
    Продолжительность : 22 м.
    Вид битрейта : Переменный
    Битрейт : 5502 Кбит/сек
    Максимальный битрейт : 7500 Кбит/сек
    Ширина : 720 пикселей
    Высота : 576 пикселей
    Соотношение сторон : 16:9
    Частота кадров : 25,000 кадров/сек
    Стандарт вещания : PAL
    Цветовое пространство : YUV
    Субдискретизация насыщенности : 4:2:0
    Битовая глубина : 8 бит
    Тип развёртки : Чересстрочная
    Порядок развёртки : Верхнее поле первое
    Метод сжатия : С потерями
    Бит/(Пиксели*Кадры) : 0.531
    Размер потока : 872 Мбайт (85%)

    Аудио #1
    Идентификатор : 189 (0xBD)-128 (0x80)
    Формат : AC-3
    Формат/Информация : Audio Coding 3
    Расширение режима : CM (complete main)
    Режим смешивания : DVD-Video
    Продолжительность : 22 м.
    Вид битрейта : Постоянный
    Битрейт : 448 Кбит/сек
    Каналы : 6 каналов
    Расположение каналов : Front: L C R, Side: L R, LFE
    Частота : 48,0 КГц
    Битовая глубина : 16 бит
    Метод сжатия : С потерями
    Размер потока : 71,0 Мбайт (7%)

    Аудио #2
    Идентификатор : 189 (0xBD)-129 (0x81)
    Формат : AC-3
    Формат/Информация : Audio Coding 3
    Расширение режима : CM (complete main)
    Режим смешивания : DVD-Video
    Продолжительность : 22 м.
    Вид битрейта : Постоянный
    Битрейт : 384 Кбит/сек
    Каналы : 6 каналов
    Расположение каналов : Front: L C R, Side: L R, LFE
    Частота : 48,0 КГц
    Битовая глубина : 16 бит
    Метод сжатия : С потерями
    Размер потока : 60,8 Мбайт (6%)

    Текст #1
    Идентификатор : 189 (0xBD)-32 (0x20)
    Формат : RLE
    Формат/Информация : Run-length encoding
    Режим смешивания : DVD-Video
    Продолжительность : 22 м.
    Задержка видео : 6 с. 360 мс.

    Текст #2
    Идентификатор : 189 (0xBD)-33 (0x21)
    Формат : RLE
    Формат/Информация : Run-length encoding
    Режим смешивания : DVD-Video
    Продолжительность : 22 м.
    Задержка видео : 6 с. 360 мс.

    Текст #3
    Идентификатор : 189 (0xBD)-34 (0x22)
    Формат : RLE
    Формат/Информация : Run-length encoding
    Режим смешивания : DVD-Video
    Продолжительность : 22 м.
    Задержка видео : 6 с. 360 мс.

    Текст #4
    Идентификатор : 189 (0xBD)-35 (0x23)
    Формат : RLE
    Формат/Информация : Run-length encoding
    Режим смешивания : DVD-Video
    Продолжительность : 22 м.
    Задержка видео : 6 с. 360 мс.

    Текст #5
    Идентификатор : 189 (0xBD)-36 (0x24)
    Формат : RLE
    Формат/Информация : Run-length encoding
    Режим смешивания : DVD-Video
    Продолжительность : 22 м.
    Задержка видео : 6 с. 360 мс.

    Текст #6
    Идентификатор : 189 (0xBD)-37 (0x25)
    Формат : RLE
    Формат/Информация : Run-length encoding
    Режим смешивания : DVD-Video
    Продолжительность : 22 м.
    Задержка видео : 6 с. 360 мс.

    Текст #7
    Идентификатор : 189 (0xBD)-38 (0x26)
    Формат : RLE
    Формат/Информация : Run-length encoding
    Режим смешивания : DVD-Video
    Продолжительность : 22 м.
    Задержка видео : 6 с. 360 мс.

    Текст #8
    Идентификатор : 189 (0xBD)-39 (0x27)
    Формат : RLE
    Формат/Информация : Run-length encoding
    Режим смешивания : DVD-Video
    Продолжительность : 22 м.
    Задержка видео : 6 с. 360 мс.

    Текст #9
    Идентификатор : 189 (0xBD)-40 (0x28)
    Формат : RLE
    Формат/Информация : Run-length encoding
    Режим смешивания : DVD-Video
    Продолжительность : 22 м.
    Задержка видео : 6 с. 360 мс.

    Текст #10
    Идентификатор : 189 (0xBD)-41 (0x29)
    Формат : RLE
    Формат/Информация : Run-length encoding
    Режим смешивания : DVD-Video
    Продолжительность : 22 м.
    Задержка видео : 6 с. 360 мс.

    Текст #11
    Идентификатор : 189 (0xBD)-42 (0x2A)
    Формат : RLE
    Формат/Информация : Run-length encoding
    Режим смешивания : DVD-Video
    Продолжительность : 22 м.
    Задержка видео : 6 с. 360 мс.

    Меню

Свернуть
Скриншоты

меню
Изображение

Изображение

Изображение

Изображение
Свернуть
Изображение

Изображение

Изображение

Изображение

Свернуть
Не в сети
Профиль  
 Добавлено: 2013-02-07 15:00 (спустя 3 дня)
Аватара пользователя
Стаж: 7 лет 4 месяца
Возраст: 24
Сообщений: 510
Спасибок: 4598
Лайков: 2
блин, кажется угарная вещь получилась :-D :co_ol:
_________________
"It's a cold world, everybody need a hood"
Не в сети
Профиль  
Начать новую темуОтветить на тему  [ Сообщений: 2 ] 
Вы не можете начинать темы
Вы не можете отвечать на сообщения
Вы не можете редактировать свои сообщения
Вы не можете удалять свои сообщения