Правила форума

  • В этом разделе создание новых тем Запрещено.
  • Для создания новых тем пользуйтесь Корневым разделом DVD и HD фильмы.
Начать новую темуОтветить на тему  [ Сообщений: 4 ] 
Торрент файл
Размер: 3.94 GB • Зарегистрирован: 5 лет 2 месяца • Статус: Проверено
Скачан: 198 раз • Желающих скачать: 0 • Поблагодарили: 27 раз
 Раздают: 0  |  0 KB/s  ]   Качают: 0  |  0 KB/s  ] 
 Полного источника не было 3 года 2 месяца 
Сообщения
 Добавлено: 2011-09-29 23:14
Аватара пользователя
Стаж: 5 лет 6 месяцев
Возраст: 30
Сообщений: 353
Спасибок: 7455
51 / 51

Изображение


Год выпуска: 2011
Страна: США (AfterDark Films)
Слоган: «Добро пожаловать в будущее»
Жанр: ужасы, фантастика
Продолжительность: 01:26:01
Перевод: Профессиональный (многоголосый закадровый)
Субтитры: Украинские

Режиссёр: Джейсон Коннери / Jason Connery
Сценарист: Люси Мукерджи, Кенни Яккель
Продюсер: Кортни Соломон, Йорам Барзилай, Стефани Калеб
Оператор: Харон Леви
Композитор: Йен Хонимэн

В ролях: Рэйчел Майнер, Джейсон Лондон, Брюс Бокслейтнер, Ванесса Бренч, Джон Ши, Джиллиан Басерсон, Дж.Д. Эвермор, Бо Брассо, Лена Кларк

Описание: «51» — это предполагаемая история о тех последствиях, которые могут иметь место, если политическое давление заставит военных приоткрыть тщательно охраняемые тайны. «База 51» — это загадочное, давно будоражащее умы место, где якобы командование ВВС США и спецслужбы тщательно укрывают от общественности одну из «загадок тысячелетия».
Группа журналистов наконец-то получает доступ на тщательно охраняемый объект. Но нечто, томящееся в плену, использует это, как шанс, чтобы вырваться на свободу. Мы знаем, что это — ужасно, но мы не знаем, зачем оно здесь…

Доп.информация: нет
Рейтинг MPAA: Рейтинг R (Подростки до 17 лет допускаются на фильм только в сопровождении одного из родителей)
Мировая премьера: 26 февраля 2011
Премьера в России: 28 июля 2011, «Top Film Distribution»
Бюджет: $1 000 000

Изображение Изображение Изображение

Качество: DVD5 R5
Формат: DVD Video
Видео кодек: MPEG2
Аудио кодек: AC3 (Dolby Digital)
Видео: PAL 16:9 (720x576(0.556)) MPEG Video, 25,000 кадр/сек, 5763 Кбит/сек
Аудио #1: Russian (Dolby AC3, 6 ch) 384 Кбит/сек, 48,0 КГц [Профессиональный (многоголосый закадровый)]
Субтитры: Украинские
"DVDInfo"
Title:
Size: 3.94 Gb ( 4 131 134 KBytes ) - DVD-5
Enabled regions: 1, 2, 3, 4, 5, 6, 7, 8

VTS_01 :
Play Length: 00:00:08
Video: PAL 4:3 (720x576) VBR

VTS_02 :
Play Length: 00:00:13
Video: PAL 16:9 (720x576) VBR, Auto Pan&Scan

VTS_03 :
Play Length: 01:26:01
Video: PAL 16:9 (720x576) VBR, Auto Pan&Scan
Audio:
Russian (Dolby AC3, 6 ch)
Subtitles:
Ukrainian

VTS_04 :
Play Length: 00:00:16
Video: PAL 16:9 (720x576) VBR, Auto Pan&Scan
Audio:
English (Dolby AC3, 2 ch)

VTS_05 :
Play Length: 00:00:15
Video: PAL 4:3 (720x576) VBR
Audio:
English (Dolby AC3, 2 ch)
Свернуть

"MediaInfo"
Общее
Полное имя : G:\Новинки 2011\51.2011.DVD5\VIDEO_TS\VTS_03_1.VOB
Формат : MPEG-PS
Размер файла : 1024 Мбайт
Продолжительность : 22 м.
Общий поток : 6272 Кбит/сек

Видео
Идентификатор : 224 (0xE0)
Формат : MPEG Video
Версия формата : Version 2
Профиль формата : Main@Main
Параметр BVOP формата : Да
Параметр матрицы формата : Выборочная
Продолжительность : 22 м.
Вид битрейта : Переменный
Битрейт : 5763 Кбит/сек
Максимальный битрейт : 8000 Кбит/сек
Ширина : 720 пикселей
Высота : 576 пикселей
Соотношение сторон : 16:9
Частота кадров : 25,000 кадров/сек
Стандарт вещания : PAL
Цветовое пространство : YUV
Субдискретизация насыщенности : 4:2:0
Битовая глубина : 8 бит
Тип развёртки : Чересстрочная
Порядок развёртки : Верхнее поле первое
Метод сжатия : С потерями
Бит/(Пиксели*Кадры) : 0.556
Размер потока : 941 Мбайт (92%)

Аудио
Идентификатор : 189 (0xBD)-128 (0x80)
Формат : AC-3
Формат/Информация : Audio Coding 3
Расширение режима : CM (complete main)
Режим смешивания : DVD-Video
Продолжительность : 22 м.
Вид битрейта : Постоянный
Битрейт : 384 Кбит/сек
Каналы : 6 каналов
Расположение каналов : Front: L C R, Side: L R, LFE
Частота : 48,0 КГц
Битовая глубина : 16 бит
Метод сжатия : С потерями
Размер потока : 62,7 Мбайт (6%)

Текст
Идентификатор : 189 (0xBD)-32 (0x20)
Формат : RLE
Формат/Информация : Run-length encoding
Режим смешивания : DVD-Video
Задержка видео : 12 с.

Свернуть

Скриншоты
Скриншоты меню
Изображение
Изображение
Изображение
Свернуть
Изображение
Изображение
Изображение
Изображение
Изображение
Изображение
Изображение
Изображение
Свернуть

Изображение Изображение
Не в сети
Профиль  
 Добавлено: 2011-10-05 06:56 (спустя 5 дней)
Стаж: 7 лет
Сообщений: 42
Лайков: 1
Чую фильм такой бред .... ))
Не в сети
Профиль  
 Добавлено: 2011-10-05 06:56 (спустя 0 секунд)
Стаж: 7 лет
Сообщений: 42
Лайков: 1
Чую фильм такой бред .... ))
Не в сети
Профиль  
 Добавлено: 2011-10-05 16:47 (спустя 9 часов)
Аватара пользователя
Стаж: 7 лет 1 месяц
Возраст: 30
Сообщений: 73
Спасибок: 112
отменный шлакообразный ккал.не качайте низачто!это какашко из разрада человеческой многоножки - кровавый и бессмысленный шлак с тупой игрой актеров-людей и актеров-пришельцев.
Оказывется такой шлак не тока у нас , но и за бугром бывает! ;;-)))
_________________
DualCore Intel Pentium E6600, 3066 MHz, Asus P5G41T-M LX S 775, Samsung 4 гб DDR3-1333, PCI-Express NVIDIA GeForce GT 520 (1024 гб), Hitachi HDS721010CLA332 1Тб Sata-II.
Не в сети
Профиль  
Начать новую темуОтветить на тему  [ Сообщений: 4 ] 
Вы не можете начинать темы
Вы не можете отвечать на сообщения
Вы не можете редактировать свои сообщения
Вы не можете удалять свои сообщения