Правила форума

  • В этом разделе создание новых тем Запрещено.
  • Для создания новых тем пользуйтесь Корневым разделом DVD и HD фильмы.
Начать новую темуОтветить на тему  [ 1 сообщение ] 
Торрент файл
Размер: 3.72 GB • Зарегистрирован: 4 года 1 месяц • Статус: Проверено
Скачан: 136 раз • Желающих скачать: 0 • Поблагодарили: 47 раз
 Раздают: 0  |  0 KB/s  ]   Качают: 0  |  0 KB/s  ] 
 Полного источника не было 2 года 11 месяцев 
Сообщения
 Добавлено: 2012-10-20 17:07
Руководитель релиз-группы
Аватара пользователя
Стаж: 7 лет 4 месяца
Возраст: 31
Сообщений: 3407
Спасибок: 46729
Лайков: 5
Изображение

Адский бункер: Черное Солнце
Outpost: Black Sun


Год выпуска: 2012
Страна: Великобритания
Слоган: «Война в аду»
Жанр: ужасы, боевик
Продолжительность: 01:36:55
Перевод: Профессиональный (многоголосый, закадровый)
Режиссер: Стив Баркер
Сценарий: Стив Баркер, Рэй Брантон
Продюсер: Арабелла Пейдж Крофт, Киран Паркер, Джэми Кармайкл, Анджела М. Мюррэй, Снейл Шах
Оператор: Дэрран Тирнан
Композитор: Тео Грин
В ролях: Катрин Стэдмен, Ричард Койл, Клайв Расселл, Майкл Бирн, Джулиан Уэдэм, Даниэль Кальтаджироне, Ник Неверн, Пол Бирчард, Дэвид Гант, Элис Да Кунья, Гари МакДональд, Джонни Мерес
Бюджет: $3 000 000
Описание: Научные разработки, которые велись немцами во время Второй мировой войны, по созданию бессмертных солдат не прошли даром. Уже в наши дни бойцы НАТО сталкиваются с батальоном зомби-солдат нацистской Германии из числа штурмовиков. Противостоять восставшим мертвецам практически невозможно, но еще более сложная задача стоит перед героями фильма - найти и уничтожить источник воскрешающей армии, грозящей миру Четвёртым Рейхом...
Изображение
Релиз: Изображение Раздача группы: Изображение
Качество: DVD5
Формат: DVD Video
Видео: MPEG2; PAL 16:9 (720x576)
Аудио: Dolby AC3, 6 ch, 384 Kbps Russian
Субтитры: Ukrainian
Дополнительно: нет
Изображение
DVDInfo
    Title: Adski.bunker.Chernoe.solnce_2012_DVD5.[R.G.Daredevil]
    Size: 3.72 Gb ( 3 904 724,00 KBytes ) - DVD-5
    Enabled regions: 1, 2, 3, 4, 5, 6, 7, 8

    VTS_01 :
    Play Length: 01:36:55
    Video: PAL 16:9 (720x576) VBR, Auto Letterboxed
    Audio:
    Russian (Dolby AC3, 6 ch)
    Subtitles:
    Ukrainian

    VTS_02 :
    Play Length: 00:00:08
    Video: PAL 4:3 (720x576) VBR

    VTS_03 :
    Play Length: 00:00:05
    Video: PAL 16:9 (720x576) VBR, Auto Letterboxed
Свернуть
mediainfo
    Формат : MPEG-PS
    Размер файла : 1024 Мбайт
    Продолжительность : 24 м.
    Режим общего битрейта : Переменный
    Общий поток : 5956 Кбит/сек

    Видео
    Идентификатор : 224 (0xE0)
    Формат : MPEG Video
    Версия формата : Version 2
    Профиль формата : Main@Main
    Параметр BVOP формата : Да
    Параметр матрицы формата : Выборочная
    Продолжительность : 24 м.
    Вид битрейта : Переменный
    Битрейт : 5454 Кбит/сек
    Максимальный битрейт : 8000 Кбит/сек
    Ширина : 720 пикселей
    Высота : 576 пикселей
    Соотношение сторон : 16:9
    Частота кадров : 25,000 кадров/сек
    Стандарт вещания : PAL
    Цветовое пространство : YUV
    Субдискретизация насыщенности : 4:2:0
    Битовая глубина : 8 бит
    Тип развёртки : Чересстрочная
    Порядок развёртки : Верхнее поле первое
    Метод сжатия : С потерями
    Бит/(Пиксели*Кадры) : 0.526
    Размер потока : 938 Мбайт (92%)

    Аудио
    Идентификатор : 189 (0xBD)-128 (0x80)
    Формат : AC-3
    Формат/Информация : Audio Coding 3
    Расширение режима : CM (complete main)
    Режим смешивания : DVD-Video
    Продолжительность : 24 м.
    Вид битрейта : Постоянный
    Битрейт : 384 Кбит/сек
    Каналы : 6 каналов
    Расположение каналов : Front: L C R, Side: L R, LFE
    Частота : 48,0 КГц
    Битовая глубина : 16 бит
    Метод сжатия : С потерями
    Размер потока : 66,0 Мбайт (6%)

    Меню
Свернуть
Скриншоты

меню
Изображение

Изображение

Изображение
Свернуть
Изображение

Изображение

Изображение
Свернуть
Не в сети
Профиль  
Начать новую темуОтветить на тему  [ 1 сообщение ] 
Вы не можете начинать темы
Вы не можете отвечать на сообщения
Вы не можете редактировать свои сообщения
Вы не можете удалять свои сообщения