Правила форума

  • В этом разделе создание новых тем Запрещено.
  • Для создания новых тем пользуйтесь Корневым разделом DVD и HD фильмы.
Начать новую темуОтветить на тему  [ Сообщений: 2 ] 
Торрент файл
Размер: 7.59 GB • Зарегистрирован: 4 года 10 месяцев • Статус: Проверено
Скачан: 82 раза • Желающих скачать: 0 • Поблагодарили: 14 раз
 Раздают: 0  |  0 KB/s  ]   Качают: 0  |  0 KB/s  ] 
 Полного источника не было 3 года 2 месяца 
Сообщения
 Добавлено: 2012-01-20 22:21
Аватара пользователя
Стаж: 5 лет 5 месяцев
Возраст: 30
Сообщений: 353
Спасибок: 7455
Агент Джонни Инглиш: Перезагрузка / Johnny English Reborn

Изображение


Год выпуска: 2011
Страна: США, Франция, Великобритания (Relativity Media, Studio Canal, Universal Pictures, Working Title Films)
Слоган: «Он не ищет лёгких путей»
Жанр: боевик, комедия, приключения
Продолжительность: 01:37:15
Перевод: Оригинальная звуковая дорожка + Профессиональный (дубляж)
Дублеры: Сергей Бурунов, Елена Соловьева, Татьяна Шитова, Владимир Зайцев, Диомид Виноградов + Оригинальная звуковая дорожка
Субтитры: Русские, английские, польские, украинские, эстонские, латышские, литовские

Режиссёр: Оливер Паркер / Oliver Parker
Сценарист: Уильям Дэвис, Хэмиш Макколл, Нил Пёрвис
Продюсер: Тим Беван, Крис Кларк, Эрик Феллнер
Оператор: Дэнни Коэн
Композитор: Илан Эшкери

В ролях: Роуэн Эткинсон, Джиллиан Андерсон, Роджер Барклай, Эрик Карте, Того Игава, Элинор Уайлд, Мэнди Сидху, Маргарет Клуни, Розамунд Пайк, Доминик Уэст

Описание: Действие фильма разворачивается через 8 лет после событий предшествующего фильма и с тех пор карьера сэра Джонни Инглиша ухудшается. За 5 лет до начала фильма его направили с заданием в Мозамбик, но миссия пошла ужасно плохо. С тех пор он живёт в пещере в горах Тибета, прячась ото всех из-за стыда, сожалений и обвинений в провале миссии.
Фильм начинается, когда герой находится на крайне низком моральном уровне, пока ему не дают ещё один шанс. Британская разведка МИ-7 снова нуждается в нём и ей надо вернуть агента, чтобы тот сорвал заговор группы киллеров, планирующих убить китайского премьер-министра.

Доп.информация: Удаленные и расширенные сцены с вступительным словом от режиссера Оливера Паркера; Подборка смешных моментов; Погоня на инвалидной коляске; Комментарии режиссера и сценариста
Рейтинг MPAA: Рейтинг PG (Детям рекомендуется смотреть фильм с родителями)
Мировая премьера: 15 сентября 2011
Премьера в России: 15 сентября 2011, «UPI»
Бюджет: $45 000 000
Кассовые сборы: + $151 077 033 = $159 383 003

Изображение Изображение Изображение

Качество: DVD9 R5
Формат: DVD Video
Видео кодек: MPEG2
Аудио кодек: AC3 (Dolby Digital)
Видео: PAL 16:9 (720x576(0.592)) MPEG Video, 25,000 кадр/сек, 6141 Кбит/сек
Аудио #1: English (Dolby AC3, 6 ch) 384 Кбит/сек, 48,0 КГц [Оригинальная звуковая дорожка]
Аудио #2: Russian (Dolby AC3, 6 ch) 384 Кбит/сек, 48,0 КГц [Профессиональный (дубляж)]
Аудио #3: Polish (Dolby AC3, 6 ch) 384 Кбит/сек, 48,0 КГц [Оригинальная звуковая дорожка]
Субтитры: Русские, английские, польские, украинские, эстонские, латышские, литовские

"DVDInfo"
Title:
Size: 7.59 Gb ( 7 954 818 KBytes ) - DVD-9
Enabled regions: 1, 2, 3, 4, 5, 6, 7, 8

VTS_01 :
Play Length: 00:00:12+00:01:09+00:00:33+00:01:23+00:01:03+00:01:19
Video: PAL 16:9 (720x576) VBR, Auto Pan&Scan
Audio:
English (Dolby AC3, 2 ch)
Subtitles:
English
Russian
Polish

VTS_02 :
Play Length: 00:00:09+00:00:08
Video: PAL 16:9 (720x576) VBR, Auto Pan&Scan
Audio:
English (Dolby AC3, 2 ch)
Subtitles:
Not specified
Not specified
Not specified
Not specified

VTS_03 :
Play Length:
Video: PAL 16:9 (720x576) VBR, Auto Pan&Scan

VTS_04 :
Play Length: 00:02:30
Video: PAL 16:9 (720x576) VBR, Auto Pan&Scan
Audio:
English (Dolby AC3, 2 ch)
Subtitles:
English
Russian
Polish

VTS_05 :
Play Length: 01:37:15
Video: PAL 16:9 (720x576) VBR, Auto Pan&Scan
Audio:
English (Dolby AC3, 6 ch)
Russian (Dolby AC3, 6 ch)
Polish (Dolby AC3, 6 ch)
English (Dolby AC3, 2 ch)
Subtitles:
English
Russian
Polish
Ukrainian
Estonian
Latvian
Lithuanian
English
Russian

VTS_06 :
Play Length: 00:00:23
Video: PAL 16:9 (720x576) VBR, Auto Pan&Scan
Audio:
English (Dolby AC3, 6 ch)

VTS_07 :
Play Length: 00:00:14
Video: PAL 16:9 (720x576) VBR, Auto Pan&Scan
Audio:
English (Dolby AC3, 6 ch)

VTS_08 :
Play Length: 00:38:50+00:02:46+00:05:17+00:01:05+00:01:41+00:02:25+00:01:08+00:02:54+00:01:42+00:01:55+00:01:26+00:02:47+00:02:29+00:01:19+00:02:32+00:01:24+00:04:01+00:02:01
Video: PAL 16:9 (720x576) VBR, Auto Pan&Scan
Audio:
English (Dolby AC3, 2 ch)
Subtitles:
English
Russian
Polish

VTS_09 :
Play Length: 00:05:13
Video: PAL 16:9 (720x576) VBR, Auto Pan&Scan
Audio:
English (Dolby AC3, 2 ch)
Subtitles:
English
Russian
Polish

Свернуть

"MediaInfo"
Общее
Полное имя : G:\Новинки 2012\Agent.Dzhonni.Inglish Perezagruzka.2011.DVD9\VIDEO_TS\VTS_05_1.VOB
Формат : MPEG-PS
Размер файла : 1024 Мбайт
Продолжительность : 18 м.
Общий поток : 7637 Кбит/сек

Видео
Идентификатор : 224 (0xE0)
Формат : MPEG Video
Версия формата : Version 2
Профиль формата : Main@Main
Параметр BVOP формата : Да
Параметр матрицы формата : Выборочная
Продолжительность : 18 м.
Вид битрейта : Переменный
Битрейт : 6141 Кбит/сек
Максимальный битрейт : 9800 Кбит/сек
Ширина : 720 пикселей
Высота : 576 пикселей
Соотношение сторон : 16:9
Частота кадров : 25,000 кадров/сек
Стандарт вещания : PAL
Цветовое пространство : YUV
Субдискретизация насыщенности : 4:2:0
Битовая глубина : 8 бит
Тип развёртки : Чересстрочная
Порядок развёртки : Верхнее поле первое
Метод сжатия : С потерями
Бит/(Пиксели*Кадры) : 0.592
Размер потока : 823 Мбайт (80%)

Аудио #1
Идентификатор : 189 (0xBD)-128 (0x80)
Формат : AC-3
Формат/Информация : Audio Coding 3
Расширение режима : CM (complete main)
Режим смешивания : DVD-Video
Продолжительность : 18 м.
Вид битрейта : Постоянный
Битрейт : 384 Кбит/сек
Каналы : 6 каналов
Расположение каналов : Front: L C R, Side: L R, LFE
Частота : 48,0 КГц
Битовая глубина : 16 бит
Метод сжатия : С потерями
Размер потока : 51,5 Мбайт (5%)

Аудио #2
Идентификатор : 189 (0xBD)-129 (0x81)
Формат : AC-3
Формат/Информация : Audio Coding 3
Расширение режима : CM (complete main)
Режим смешивания : DVD-Video
Продолжительность : 18 м.
Вид битрейта : Постоянный
Битрейт : 384 Кбит/сек
Каналы : 6 каналов
Расположение каналов : Front: L C R, Side: L R, LFE
Частота : 48,0 КГц
Битовая глубина : 16 бит
Метод сжатия : С потерями
Размер потока : 51,5 Мбайт (5%)

Аудио #3
Идентификатор : 189 (0xBD)-130 (0x82)
Формат : AC-3
Формат/Информация : Audio Coding 3
Расширение режима : CM (complete main)
Режим смешивания : DVD-Video
Продолжительность : 18 м.
Вид битрейта : Постоянный
Битрейт : 384 Кбит/сек
Каналы : 6 каналов
Расположение каналов : Front: L C R, Side: L R, LFE
Частота : 48,0 КГц
Битовая глубина : 16 бит
Метод сжатия : С потерями
Размер потока : 51,5 Мбайт (5%)

Аудио #4
Идентификатор : 189 (0xBD)-131 (0x83)
Формат : AC-3
Формат/Информация : Audio Coding 3
Профиль формата : Dolby Digital
Расширение режима : CM (complete main)
Режим смешивания : DVD-Video
Продолжительность : 18 м.
Вид битрейта : Постоянный
Битрейт : 192 Кбит/сек
Каналы : 2 канала
Расположение каналов : Front: L R
Частота : 48,0 КГц
Битовая глубина : 16 бит
Метод сжатия : С потерями
Размер потока : 25,7 Мбайт (3%)

Текст
Идентификатор : 189 (0xBD)-39 (0x27)
Формат : RLE
Формат/Информация : Run-length encoding
Режим смешивания : DVD-Video


Свернуть

Скриншоты
Скриншоты меню
Изображение Изображение Изображение Изображение Изображение Изображение Изображение
Свернуть
Изображение
Изображение
Изображение
Изображение
Изображение
Изображение
Изображение
Изображение
Свернуть

Знаете ли Вы, что...
В сцене после титров звучит классическая композиция «The Hall Of The Mountain King» Эдварда Грига из пьесы Генрика Ибсена «Пер Гюнт».
Свернуть

Изображение
Не в сети
Профиль  
 Добавлено: 2012-01-22 17:57 (спустя 1 день 19 часов)
Стаж: 8 лет 7 месяцев
Сообщений: 16
чушь! не сусветная :ps_ih:
Не в сети
Профиль  
Начать новую темуОтветить на тему  [ Сообщений: 2 ] 
Вы не можете начинать темы
Вы не можете отвечать на сообщения
Вы не можете редактировать свои сообщения
Вы не можете удалять свои сообщения