Правила форума

  • В этом разделе создание новых тем Запрещено.
  • Для создания новых тем пользуйтесь Корневым разделом DVD и HD фильмы.
Начать новую темуОтветить на тему  [ Сообщений: 5 ] 
Торрент файл
Размер: 4.37 GB • Зарегистрирован: 4 года 10 месяцев • Статус: Проверено
Скачан: 327 раз • Желающих скачать: 0 • Поблагодарили: 65 раз
 Раздают: 0  |  0 KB/s  ]   Качают: 0  |  0 KB/s  ] 
 Полного источника не было 2 года 2 месяца 
Сообщения
 Добавлено: 2012-01-21 00:50
Руководитель релиз-группы
Аватара пользователя
Стаж: 7 лет 4 месяца
Возраст: 31
Сообщений: 3407
Спасибок: 46729
Лайков: 5
Изображение

Агент Джонни Инглиш: Перезагрузка
Johnny English Reborn


Год выпуска: 2011
Страна: США, Франция, Великобритания
Слоган: «Он не ищет лёгких путей»
Жанр: боевик, комедия, приключения
Продолжительность: 01:37:15
Перевод: Профессиональный (полное дублирование)
Режиссер: Оливер Паркер
Сценарий: Уильям Дэвис, Хэмиш Макколл, Нил Пёрвис
Продюсер: Тим Беван, Крис Кларк, Эрик Феллнер
Оператор: Дэнни Коэн
Композитор: Илан Эшкери
В ролях: Роуэн Эткинсон, Джиллиан Андерсон, Роджер Барклай, Эрик Карте, Того Игава, Элинор Уайлд, Мэнди Сидху, Маргарет Клуни, Розамунд Пайк, Доминик Уэст
Бюджет: $45 000 000
Сборы в мире: $159 383 003
Описание: Действие фильма разворачивается через 8 лет после событий предшествующего фильма и с тех пор карьера сэра Джонни Инглиша ухудшается. За 5 лет до начала фильма его направили с заданием в Мозамбик, но миссия пошла ужасно плохо. С тех пор он живёт в пещере в горах Тибета, прячась ото всех из-за стыда, сожалений и обвинений в провале миссии.
Фильм начинается, когда герой находится на крайне низком моральном уровне, пока ему не дают ещё один шанс. Британская разведка МИ-7 снова нуждается в нём и ей надо вернуть агента, чтобы тот сорвал заговор группы киллеров, планирующих убить китайского премьер-министра.
Изображение
MPAA: Изображение
Релиз: Изображение Раздача группы: Изображение
Качество: DVD5 (сжатый)
Формат: DVD Video
Видео: MPEG2; PAL 16:9 (720x576)
Аудио #1: Dolby AC3, 6 ch, 384 Kbps Russian
Аудио #2: Dolby AC3, 6 ch, 384 Kbps English
Субтитры: English, Russian, Polish, Ukrainian, Estonian, Latvian, Lithuanian
Дополнительная информация :
Исходник : DVD9 (7.59 Гб) [лицензия, PAL 16:9]
Убрано : допы, реклама, Polish (Dolby AC3, 6 ch), English (Dolby AC3, 2 ch - комментарии)
Сжатие фильма : 12 % сжатия (без учета ручного перераспределения битрейта, за счет большего сжатия конечных титров)
использовались программы
    DVDRemakePro
    Photoshop
    MuxMan
    Rebuilder и CCE (Cinema Craft Encoder), 5 проходов
    Работоспособность проверена на софтовом плеере Windows Media и бытовом LG
Свернуть
DVDInfo
    Title: Agent.Johnny.English.perezagruzka_2011_DVD5.[R.G.Daredevil]
    Size: 4.37 Gb ( 4 581 344,00 KBytes ) - DVD-5
    Enabled regions: 1, 2, 3, 4, 5, 6, 7, 8

    VTS_01 :
    Play Length: 00:00:12+00:00:00+00:00:00+00:00:00+00:00:00+00:00:00+00:00:00
    Video: PAL 16:9 (720x576) VBR, Auto Letterboxed
    Audio:
    English (Dolby AC3, 2 ch)
    Subtitles:
    English
    Russian
    Polish

    VTS_02 :
    Play Length: 00:00:00+00:00:00
    Video: PAL 16:9 (720x576) VBR, Auto Letterboxed
    Audio:
    English (Dolby AC3, 2 ch)

    VTS_03 :
    Play Length: 00:00:00
    Video: PAL 16:9 (720x576) VBR, Auto Letterboxed

    VTS_04 :
    Play Length: 00:00:00
    Video: PAL 16:9 (720x576) VBR, Auto Letterboxed
    Audio:
    English (Dolby AC3, 2 ch)
    Subtitles:
    English
    Russian
    Polish

    VTS_05 :
    Play Length: 01:37:15
    Video: PAL 16:9 (720x576) VBR, Auto Letterboxed
    Audio:
    English (Dolby AC3, 6 ch)
    Russian (Dolby AC3, 6 ch)
    Subtitles:
    English
    Russian
    Polish
    Ukrainian
    Estonian
    Latvian
    Lithuanian
    English
    Russian

    VTS_06 :
    Play Length: 00:00:23
    Video: PAL 16:9 (720x576) VBR, Auto Letterboxed
    Audio:
    English (Dolby AC3, 6 ch)

    VTS_07 :
    Play Length: 00:00:00
    Video: PAL 16:9 (720x576) VBR, Auto Letterboxed
    Audio:
    English (Dolby AC3, 6 ch)

    VTS_08 :
    Play Length: 00:00:08+{00:00:00}+{00:00:00}+{00:00:00}+{00:00:00}+{00:00:00}+{00:00:00}+{00:00:00}+{00:00:00}+{00:00:00}+{00:00:00}+{00:00:00}+{00:00:00}+{00:00:00}+{00:00:00}+{00:00:00}+{00:00:00}+{00:00:00}
    Video: PAL 16:9 (720x576) VBR, Auto Letterboxed
    Audio:
    English (Dolby AC3, 2 ch)
    Subtitles:
    English
    Russian
    Polish

    VTS_09 :
    Play Length: 00:00:00
    Video: PAL 16:9 (720x576) VBR, Auto Letterboxed
    Audio:
    English (Dolby AC3, 2 ch)
    Subtitles:
    English
    Russian
    Polish
Свернуть
mediainfo
    Формат : MPEG-PS
    Размер файла : 1024 Мбайт
    Продолжительность : 20 м.
    Режим общего битрейта : Переменный
    Общий поток : 6829 Кбит/сек

    Видео
    Идентификатор : 224 (0xE0)
    Формат : MPEG Video
    Версия формата : Version 2
    Профиль формата : Main@Main
    Параметр BVOP формата : Да
    Параметр матрицы формата : Выборочная
    Продолжительность : 20 м.
    Вид битрейта : Переменный
    Битрейт : 5925 Кбит/сек
    Максимальный битрейт : 8624 Кбит/сек
    Ширина : 720 пикселей
    Высота : 576 пикселей
    Соотношение сторон : 16:9
    Частота кадров : 25,000 кадров/сек
    Стандарт вещания : PAL
    Цветовое пространство : YUV
    Субдискретизация насыщенности : 4:2:0
    Битовая глубина : 8 бит
    Тип развёртки : Чересстрочная
    Порядок развёртки : Верхнее поле первое
    Метод сжатия : С потерями
    Бит/(Пиксели*Кадры) : 0.571
    Размер потока : 888 Мбайт (87%)

    Аудио #1
    Идентификатор : 189 (0xBD)-128 (0x80)
    Формат : AC-3
    Формат/Информация : Audio Coding 3
    Расширение режима : CM (complete main)
    Режим смешивания : DVD-Video
    Продолжительность : 20 м.
    Вид битрейта : Постоянный
    Битрейт : 384 Кбит/сек
    Каналы : 6 каналов
    Расположение каналов : Front: L C R, Side: L R, LFE
    Частота : 48,0 КГц
    Битовая глубина : 16 бит
    Метод сжатия : С потерями
    Размер потока : 57,6 Мбайт (6%)

    Аудио #2
    Идентификатор : 189 (0xBD)-129 (0x81)
    Формат : AC-3
    Формат/Информация : Audio Coding 3
    Расширение режима : CM (complete main)
    Режим смешивания : DVD-Video
    Продолжительность : 20 м.
    Вид битрейта : Постоянный
    Битрейт : 384 Кбит/сек
    Каналы : 6 каналов
    Расположение каналов : Front: L C R, Side: L R, LFE
    Частота : 48,0 КГц
    Битовая глубина : 16 бит
    Метод сжатия : С потерями
    Размер потока : 57,6 Мбайт (6%)

    Текст
    Идентификатор : 189 (0xBD)-39 (0x27)
    Формат : RLE
    Формат/Информация : Run-length encoding
    Режим смешивания : DVD-Video

    Меню
Свернуть
Знаете ли Вы, что...
  • В сцене после титров звучит классическая композиция «The Hall Of The Mountain King» Эдварда Грига из пьесы Генрика Ибсена «Пер Гюнт».
Свернуть
Скриншоты

меню
Изображение
Изображение
Изображение
Изображение
Изображение
Изображение
Свернуть
Изображение
Изображение
Изображение
Изображение
Свернуть
Не в сети
Профиль  
 Добавлено: 2012-01-21 11:07 (спустя 10 часов)
Аватара пользователя
Стаж: 5 лет
Сообщений: 13
dayte skorosty.
_________________
Nicu.
Не в сети
Профиль  
 Добавлено: 2012-01-22 19:49 (спустя 1 день 8 часов)
Кинокомментатор
Аватара пользователя
Стаж: 9 лет 1 месяц
Сообщений: 1332
Лайков: 54
как можно быть таким дебилом?:)
фильм предсказуем:) туповат) легкий:) и смотрица средненько:)
6/10
_________________
Я ВКонтакте
Не в сети
Профиль  
 Добавлено: 2012-01-24 10:23 (спустя 1 день 14 часов)
Аватара пользователя
Стаж: 8 лет 1 месяц
Сообщений: 121
Лайков: 2
это же Роуэн Эткинсон талантище, таких нужно поискать,молодец мужик :co_ol:
Не в сети
Профиль  
 Добавлено: 2012-01-24 10:27 (спустя 4 минуты)
Аватара пользователя
Стаж: 8 лет 1 месяц
Сообщений: 121
Лайков: 2

Bronks:

как можно быть таким дебилом?:)
фильм предсказуем:) туповат) легкий:) и смотрица средненько:)
6/10
он и должен быть легким ,такие фильмы для отдыха ,это не джеймс бонд и не ван дамм
Не в сети
Профиль  
Начать новую темуОтветить на тему  [ Сообщений: 5 ] 
Вы не можете начинать темы
Вы не можете отвечать на сообщения
Вы не можете редактировать свои сообщения
Вы не можете удалять свои сообщения