Правила форума

  • В этом разделе создание новых тем Запрещено.
  • Для создания новых тем пользуйтесь Корневым разделом DVD и HD фильмы.
Начать новую темуОтветить на тему  [ Сообщений: 3 ] 
Торрент файл
Размер: 4.36 GB • Зарегистрирован: 4 года • Статус: Проверено
Скачан: 46 раз • Желающих скачать: 0 • Поблагодарили: 18 раз
 Раздают: 0  |  0 KB/s  ]   Качают: 0  |  0 KB/s  ] 
 Полного источника не было 2 года 9 месяцев 
Сообщения
 Добавлено: 2012-11-25 22:48
Аватара пользователя
Стаж: 5 лет 5 месяцев
Возраст: 30
Сообщений: 353
Спасибок: 7455
Агент Хамилтон: В интересах нации / Hamilton - I nationens intresse

Изображение


Год выпуска: 2012
Страна: Швеция (Pampas Produktion, TV4 Sweden)
Жанр: боевик, триллер, драма
Продолжительность: 01:49:17
Перевод: Профессиональный (многоголосый закадровый) [Лицензия]
Субтитры: Нет

Режиссёр: Кэтрин Уиндфельд / Kathrine Windfeld
Сценарист: Стефан Тунберг, Ян Гиллоу
Продюсер: Жан Марнелл, Маттиас Йоханссон, Kaska Krosny
Оператор: Jonas Alarik
Композитор: Philippe Boix-Vives, Йон Экстранд
В ролях: Микаэл Персбрандт, Пернилла Аугуст, Джейсон Флеминг, Леннарт Юльстрём, Александр Носик, Рэй Фиарон, Петер Андерссон, Густаф Хаммарстен, Дэн Экбор

Описание: Специальный агент Карл Гамильтон с секретной миссией на границе между Узбекистаном и Афганистаном. Он внедряется в тайную организацию русской мафии, которая украла сложные GPS-управляемые артиллерийские снаряды, экспортируемые шведской оборонной компанией Nordfors. Неожиданно они подвергаются нападению неизвестной группы вооруженных наемников, которые убивают всех, кроме Гамильтона, и скрываются вместе со снарядами.
Между тем, похищен шведский оружейный техник и заключен в тюрьму Сомали. Премьер-министр соглашается провести спасательную операцию при участии частной американской охранной компании Sectragon, с условием, что шведский наблюдатель будет присутствовать, а именно Карл Гамильтон. Гамильтон участвует в спасательной операции, но он чувствовал, что что-то не так. Кто-то говорит неправду, и он готов узнать, что происходит на самом деле.

Доп.информация: нет
Рейтинг MPAA: Рейтинг R (Подростки до 17 лет допускаются на фильм только в сопровождении одного из родителей)
Мировая премьера: 13 января 2012
Бюджет: SEK 45 000 000

Изображение Изображение Изображение

Качество: DVD5 R5
Формат: DVD Video
Видео кодек: MPEG2
Аудио кодек: AC3 (Dolby Digital)
Видео: NTSC 16:9 (720x480(0.603)) MPEG Video, 25,000 кадр/сек, 5000 Кбит/сек
Аудио #1: Russian (Dolby AC3, 6 ch) 448 Кбит/сек, 48,0 КГц [Профессиональный (многоголосый закадровый)]
Субтитры: Нет

"DVDInfo"
Title: Agent.Xamilton.V.interesax.nacii.2012.DVD5
Size: 4.36 Gb ( 4 568 322,00 KBytes ) - DVD-5
Enabled regions: 1, 2, 3, 4, 5, 6, 7, 8

VTS_01 :
Play Length: 01:49:17
Video: NTSC 16:9 (720x480) VBR, Auto Letterboxed
Audio:
Russian (Dolby AC3, 6 ch)

VTS_02 :
Play Length: 00:00:10
Video: NTSC 4:3 (720x480) VBR
Audio:
Russian (Dolby AC3, 2 ch)

* Menus Information *

VIDEO_TS Menu
Video:
NTSC 4:3 (720x480) VBR
English Language Unit :
Title Menu

VTS_01 Menu
Video:
NTSC 16:9 (720x480) VBR
Auto Letterboxed
Audio:
Not specified (Dolby AC3, 2 ch)
English Language Unit :
Root Menu

VTS_02 Menu
Video:
NTSC 4:3 (720x480) VBR
English Language Unit :
Root Menu
Свернуть

"MediaInfo"
Общее
Полное имя : J:\Новинки 2012\Agent.Xamilton.V.interesax.nacii.2012.DVD5\VIDEO_TS\VTS_01_1.VOB
Формат : MPEG-PS
Размер файла : 1024 Мбайт
Продолжительность : 25 м.
Общий поток : 5562 Кбит/сек

Видео
Идентификатор : 224 (0xE0)
Формат : MPEG Video
Версия формата : Version 2
Профиль формата : Main@Main
Параметр BVOP формата : Да
Параметр матрицы формата : По умолчанию
Параметр GOP формата : M=3, N=12
Продолжительность : 25 м.
Битрейт : 5000 Кбит/сек
Ширина : 720 пикселей
Высота : 480 пикселей
Соотношение сторон : 16:9
Частота кадров : 23,976 кадра/сек
Стандарт вещания : NTSC
Цветовое пространство : YUV
Субдискретизация насыщенности : 4:2:0
Битовая глубина : 8 бит
Тип развёртки : Прогрессивная
Порядок развёртки : 2:3 Pulldown
Метод сжатия : С потерями
Бит/(Пиксели*Кадры) : 0.603
Размер потока : 921 Мбайт (90%)

Аудио
Идентификатор : 189 (0xBD)-128 (0x80)
Формат : AC-3
Формат/Информация : Audio Coding 3
Расширение режима : CM (complete main)
Параметр Endianness формата : Big
Режим смешивания : DVD-Video
Продолжительность : 25 м.
Вид битрейта : Постоянный
Битрейт : 448 Кбит/сек
Каналы : 6 каналов
Расположение каналов : Front: L C R, Side: L R, LFE
Частота : 48,0 КГц
Битовая глубина : 16 бит
Метод сжатия : С потерями
Задержка видео : -83 мс.
Размер потока : 82,5 Мбайт (8%)

Свернуть

Скриншоты
Скриншоты меню
Изображение
Изображение
Свернуть
Изображение
Изображение
Изображение
Изображение
Изображение
Изображение
Изображение
Изображение
Изображение
Изображение
Свернуть


ИзображениеИзображение
Не в сети
Профиль  
 Добавлено: 2012-11-26 00:19 (спустя 1 час 31 минута)
Аватара пользователя
Стаж: 7 лет 4 месяца
Сообщений: 113
Лайков: 1
Заценим! первый на))))
_________________
Будь добрее
Не в сети
Профиль  
 Добавлено: 2012-11-30 17:45 (спустя 4 дня)
Стаж: 6 лет 8 месяцев
Сообщений: 18
ну и
как заценил на? :-D
Не в сети
Профиль  
Начать новую темуОтветить на тему  [ Сообщений: 3 ] 
Вы не можете начинать темы
Вы не можете отвечать на сообщения
Вы не можете редактировать свои сообщения
Вы не можете удалять свои сообщения