Правила форума

  • В этом разделе создание новых тем Запрещено.
  • Для создания новых тем пользуйтесь Корневым разделом DVD и HD фильмы.
Начать новую темуОтветить на тему  [ 1 сообщение ] 
Торрент файл
Размер: 7.82 GB • Зарегистрирован: 3 года 7 месяцев • Статус: Проверено
Скачан: 70 раз • Желающих скачать: 0 • Поблагодарили: 29 раз
 Раздают: 0  |  0 KB/s  ]   Качают: 0  |  0 KB/s  ] 
 Полного источника не было 1 год 8 месяцев 
Сообщения
 Добавлено: 2013-04-20 07:15
Руководитель релиз-группы
Аватара пользователя
Стаж: 7 лет 4 месяца
Возраст: 31
Сообщений: 3407
Спасибок: 46729
Лайков: 5
Изображение

Ангел-хранитель
Schutzengel


Год выпуска: 2012
Страна: Германия
Жанр: триллер
Продолжительность: 02:08:06
Перевод: Профессиональный (полное дублирование) [лицензия]
Режиссер: Тиль Швайгер
Сценарий: Стефен Бутчард, Пол Морис, Тиль Швайгер
Продюсер: Пол Морис, Тиль Швайгер, Томас Циклер, Юлия Эцельмюллер, Вилли Гейке
Оператор: Адриан Кранадж
Композитор: Мартин Тодшаров
В ролях: Тиль Швайгер, Луна Швайгер, Каролине Шух, Мориц Бляйбтрой, Хайнер Лаутербах, Райнер Бок, Херберт Кнауп, Костя Улльман, Ханна Херцшпрунг, Тим Вильде, Катарина Шюттлер, Аксель Штайн
Описание: Нина, молодая девушка - сирота, неожиданно становится свидетелем убийства, совершенного богатым предпринимателем. Теперь она - большая проблема на пути бизнесмена. Девушке негде укрыться, некуда бежать. Ее спасением становится бывший солдат Макс. Отныне он ее ангел-хранитель. Чтобы остаться в живых, им нужно срочно исчезнуть...
Изображение
Раздача группы: Изображение
Качество: DVD9
Формат: DVD Video
Видео: MPEG2; PAL 16:9 (720x576)
Аудио #1: Dolby AC3, 6 ch, 448 Kbps Russian
Аудио #2: DTS, 6 ch, 1510 Kbps Russian
Аудио #3: Dolby AC3, 6 ch, 448 Kbps Deutsch
Субтитры: русские
Дополнительная информация : Интервью с создателями и исполнителями, Анонсы
DVDInfo
    Title: Angel.Hranitel.2012.DVD9
    Size: 7.82 Gb ( 8 195 706,00 KBytes ) - DVD-9
    Enabled regions: 1, 2, 3, 4, 5, 6, 7, 8

    VTS_01 :
    Play Length: 00:00:07
    Video: PAL 16:9 (720x576) VBR, Auto Letterboxed
    Audio:
    English (MPEG1, 2 ch)

    VTS_02 :
    Play Length: 00:00:16
    Video: PAL 4:3 (720x576) VBR
    Audio:
    English (Dolby AC3, 2 ch)

    VTS_03 :
    Play Length: 00:02:19
    Video: PAL 16:9 (720x576) VBR, Auto Letterboxed
    Audio:
    Russian (LinearPCM, 2 ch)

    VTS_04 :
    Play Length: 02:08:06
    Video: PAL 16:9 (720x576) VBR, Auto Letterboxed
    Audio:
    Russian (Dolby AC3, 6 ch)
    Russian (DTS, 6 ch)
    Deutsch (Dolby AC3, 6 ch)
    Subtitles:
    Russian

    VTS_05 :
    Play Length: 00:02:02
    Video: PAL 16:9 (720x576) VBR, Auto Letterboxed
    Audio:
    Russian (LinearPCM, 2 ch)
Свернуть
mediainfo
    Формат : MPEG-PS
    Размер файла : 1024 Мбайт
    Продолжительность : 17 м.
    Режим общего битрейта : Переменный
    Общий поток : 8198 Кбит/сек
    Библиотека кодирования : encoded by TMPGEnc (ver. 2.524.63.181)

    Видео
    Идентификатор : 224 (0xE0)
    Формат : MPEG Video
    Версия формата : Version 2
    Профиль формата : Main@Main
    Параметр BVOP формата : Да
    Параметр матрицы формата : По умолчанию
    Продолжительность : 17 м.
    Вид битрейта : Переменный
    Битрейт : 5629 Кбит/сек
    Ширина : 720 пикселей
    Высота : 576 пикселей
    Соотношение сторон : 16:9
    Частота кадров : 25,000 кадров/сек
    Стандарт вещания : PAL
    Цветовое пространство : YUV
    Субдискретизация насыщенности : 4:2:0
    Битовая глубина : 8 бит
    Тип развёртки : Прогрессивная
    Метод сжатия : С потерями
    Бит/(Пиксели*Кадры) : 0.543
    Размер потока : 703 Мбайт (69%)
    Библиотека кодирования : TMPGEnc 2.524.63.181

    Аудио #1
    Идентификатор : 189 (0xBD)-128 (0x80)
    Формат : AC-3
    Формат/Информация : Audio Coding 3
    Расширение режима : CM (complete main)
    Режим смешивания : DVD-Video
    Продолжительность : 17 м.
    Вид битрейта : Постоянный
    Битрейт : 448 Кбит/сек
    Каналы : 6 каналов
    Расположение каналов : Front: L C R, Side: L R, LFE
    Частота : 48,0 КГц
    Битовая глубина : 16 бит
    Метод сжатия : С потерями
    Задержка видео : -221 мс.
    Размер потока : 56,0 Мбайт (5%)

    Аудио #2
    Идентификатор : 189 (0xBD)-130 (0x82)
    Формат : AC-3
    Формат/Информация : Audio Coding 3
    Расширение режима : CM (complete main)
    Режим смешивания : DVD-Video
    Продолжительность : 17 м.
    Вид битрейта : Постоянный
    Битрейт : 448 Кбит/сек
    Каналы : 6 каналов
    Расположение каналов : Front: L C R, Side: L R, LFE
    Частота : 48,0 КГц
    Битовая глубина : 16 бит
    Метод сжатия : С потерями
    Задержка видео : -221 мс.
    Размер потока : 56,0 Мбайт (5%)

    Аудио #3
    Идентификатор : 189 (0xBD)-137 (0x89)
    Формат : DTS
    Формат/Информация : Digital Theater Systems
    Режим смешивания : DVD-Video
    Продолжительность : 17 м.
    Вид битрейта : Постоянный
    Битрейт : 1510 Кбит/сек
    Каналы : 6 каналов
    Расположение каналов : Front: L C R, Side: L R, LFE
    Частота : 48,0 КГц
    Битовая глубина : 24 бит
    Метод сжатия : С потерями
    Задержка видео : -221 мс.
    Размер потока : 189 Мбайт (18%)

    Текст #1
    Идентификатор : 189 (0xBD)-33 (0x21)
    Формат : RLE
    Формат/Информация : Run-length encoding
    Режим смешивания : DVD-Video

    Текст #2
    Идентификатор : 189 (0xBD)-34 (0x22)
    Формат : RLE
    Формат/Информация : Run-length encoding
    Режим смешивания : DVD-Video

    Меню

Свернуть
Скриншоты

меню
Изображение

Изображение

Изображение

Изображение
Свернуть
Изображение

Изображение

Изображение

Изображение
Свернуть
Не в сети
Профиль  
Начать новую темуОтветить на тему  [ 1 сообщение ] 
Вы не можете начинать темы
Вы не можете отвечать на сообщения
Вы не можете редактировать свои сообщения
Вы не можете удалять свои сообщения