Правила форума

  • В этом разделе создание новых тем Запрещено.
  • Для создания новых тем пользуйтесь Корневым разделом DVD и HD фильмы.
Начать новую темуОтветить на тему  [ 1 сообщение ] 
Торрент файл
Размер: 4.37 GB • Зарегистрирован: 4 года 11 месяцев • Статус: Проверено
Скачан: 151 раз • Желающих скачать: 0 • Поблагодарили: 29 раз
 Раздают: 0  |  0 KB/s  ]   Качают: 0  |  0 KB/s  ] 
 Полного источника не было 3 года 2 месяца 
Сообщения
 Добавлено: 2011-12-14 16:01
Руководитель релиз-группы
Аватара пользователя
Стаж: 7 лет 4 месяца
Возраст: 31
Сообщений: 3407
Спасибок: 46728
Лайков: 5
Изображение

Аноним
Anonymous


Год выпуска: 2011
Страна: Германия, Великобритания
Слоган: «Что скрывает имя Шекспир?»
Жанр: триллер, драма
Продолжительность: 02:04:36
Перевод: Профессиональный (полное дублирование)
Режиссер: Роланд Эммерих
Сценарий: Джон Орлофф
Продюсер: Роланд Эммерих, Ларри Дж. Франко, Роберт Леджер
Оператор: Анна Ферстер
Композитор: Харальд Клозер, Томас Ванкер
В ролях: Рис Иванс, Ванесса Редгрейв, Себастьян Фернандес-Арместо, Рейф Сполл, Дэвид Тьюлис, Эдвард Хогг, Ксавьер Сэмюэл, Сэм Рейд, Джейми Кэмпбелл Бауэр, Джоэли Ричардсон...
Бюджет: $30 000 000
Сборы в мире: $14 190 830
Описание: Фильм даст совершенно неожиданный ответ на извечный вопрос: а кем же «был или не был» Шекспир, и кто на самом деле скрывается за этим всемирно известным именем великого человека?
Изображение
MPAA: Изображение
Релиз: Изображение Раздача группы: Изображение
Качество: DVD5 (сжатый)
Формат: DVD Video
Видео: MPEG2; PAL 16:9 (720x576)
Аудио: Dolby AC3, 6 ch, 448 Kbps Russian
Субтитры: нет
Дополнительная информация :
Исходник : DVD9 (6 Гб) [лицензия, PAL 16:9]
Убрано : заставки, предупреждения, Ukrainian (Dolby AC3, 6 ch)
Сжатие фильма : 23.6 % сжатия (без учета ручного перераспределения битрейта, за счет большего сжатия конечных титров)
использовались программы
    DVDRemakePro
    Photoshop
    MuxMan
    Rebuilder и CCE (Cinema Craft Encoder), 5 проходов
    Работоспособность проверена на софтовом плеере Windows Media и бытовом LG
Свернуть
DVDInfo
    Title: Anonim_2011_DVD5.[R.G.Daredevil]
    Size: 4.37 Gb ( 4 583 780,00 KBytes ) - DVD-5
    Enabled regions: 1, 2, 3, 4, 5, 6, 7, 8

    VTS_01 :
    Play Length: 02:04:36
    Video: PAL 16:9 (720x576) VBR, Auto Letterboxed
    Audio:
    Russian (Dolby AC3, 6 ch)
    Subtitles:
    Russian

    * Menus Information *

    VIDEO_TS Menu
    Video:
    PAL 16:9 (720x576) VBR
    Auto Letterboxed
    Audio:
    Not specified (Dolby AC3, 6 ch)
    Russian Language Unit :
    Title Menu

    VTS_01 Menu
    Video:
    PAL 16:9 (720x576) VBR
    Auto Pan&Scan
    Audio:
    Not specified (Dolby AC3, 6 ch)
    Russian Language Unit :
    Root Menu
    Audio Menu
    Chapter (PTT) Menu
Свернуть
mediainfo
    Формат : MPEG-PS
    Размер файла : 1024 Мбайт
    Продолжительность : 28 м.
    Режим общего битрейта : Переменный
    Общий поток : 5012 Кбит/сек

    Видео
    Идентификатор : 224 (0xE0)
    Формат : MPEG Video
    Версия формата : Version 2
    Профиль формата : Main@Main
    Параметр BVOP формата : Да
    Параметр матрицы формата : Выборочная
    Продолжительность : 28 м.
    Вид битрейта : Переменный
    Битрейт : 4465 Кбит/сек
    Максимальный битрейт : 9000 Кбит/сек
    Ширина : 720 пикселей
    Высота : 576 пикселей
    Соотношение сторон : 16:9
    Частота кадров : 25,000 кадров/сек
    Стандарт вещания : PAL
    Цветовое пространство : YUV
    Субдискретизация насыщенности : 4:2:0
    Битовая глубина : 8 бит
    Тип развёртки : Прогрессивная
    Порядок развёртки : Верхнее поле первое
    Метод сжатия : С потерями
    Бит/(Пиксели*Кадры) : 0.431
    Размер потока : 912 Мбайт (89%)

    Аудио
    Идентификатор : 189 (0xBD)-128 (0x80)
    Формат : AC-3
    Формат/Информация : Audio Coding 3
    Расширение режима : CM (complete main)
    Режим смешивания : DVD-Video
    Продолжительность : 28 м.
    Вид битрейта : Постоянный
    Битрейт : 448 Кбит/сек
    Каналы : 6 каналов
    Расположение каналов : Front: L C R, Side: L R, LFE
    Частота : 48,0 КГц
    Битовая глубина : 16 бит
    Метод сжатия : С потерями
    Размер потока : 91,5 Мбайт (9%)

    Меню
Свернуть
Скриншоты

меню
Изображение
Изображение
Свернуть
Изображение
Изображение
Изображение
Изображение
Изображение
Свернуть
Не в сети
Профиль  
Начать новую темуОтветить на тему  [ 1 сообщение ] 
Вы не можете начинать темы
Вы не можете отвечать на сообщения
Вы не можете редактировать свои сообщения
Вы не можете удалять свои сообщения