Правила форума

  • В этом разделе создание новых тем Запрещено.
  • Для создания новых тем пользуйтесь Корневым разделом DVD и HD фильмы.
Начать новую темуОтветить на тему  [ Сообщений: 4 ] 
Торрент файл
Размер: 3.53 GB • Зарегистрирован: 3 года 10 месяцев • Статус: Проверено
Скачан: 101 раз • Желающих скачать: 0 • Поблагодарили: 26 раз
 Раздают: 0  |  0 KB/s  ]   Качают: 0  |  0 KB/s  ] 
 Полного источника не было 1 год 2 месяца 
Сообщения
 Добавлено: 2013-01-19 00:15
Руководитель релиз-группы
Аватара пользователя
Стаж: 7 лет 4 месяца
Возраст: 31
Сообщений: 3407
Спасибок: 46729
Лайков: 5
Изображение

Апартаменты 1303
Apartment 1303


Год выпуска: 2012
Страна: США, Канада
Жанр: ужасы, триллер
Продолжительность: 01:21:39
Перевод: Профессиональный (полное дублирование)
Режиссер: Мишель Таверна
Сценарий: Мишель Таверна, Кеи Оиши
Продюсер: Мишель Таверна, Амир Фавац, Паола Лоренци, Синди Нельсон-Муллен, Дэнни Роснер
Оператор: Пол М. Соммерс
Композитор: Дави Бернагу, Йоанн Бернагу, Джон Лиссауер
В ролях: Миша Бартон, Ребекка Де Морнэй, Джулианна Мишель, Кори Севьер, Джон Дил, Джиллиан Олтмэн, Кэтерин Клилэнд, Кэтлин Мэкки, Джессика Малька, Гордон Мастен, Александр Груздев, Мэдисон МакАлир
Описание: В этой квартире всегда рады новым жильцам. Но никто не знает о легенде проклятия, которое здесь обитает. Говорят в апартаментах N1303, живут призраки матери и дочери, погибшие насильственной смертью. Не найдя покоя, духи мертвых жаждят отомстить своим убийцам. Каждый, кто переступает порог комнаты ужаса, становится их заложником. И еще никому не удалось вырваться из плена смерти…
Изображение
Релиз: Изображение Раздача группы: Изображение
Качество: DVD5
Формат: DVD Video
Видео: MPEG2; PAL 16:9 (720x576)
Аудио #1: Dolby AC3, 2 ch, 192 Kbps Russian
Аудио #2: Dolby AC3, 6 ch, 384 Kbps Russian
Субтитры: нет
Дополнительно: нет
DVDInfo
    Title: Apartamenty.1303.2012.D.DVD5.IRONCLUB
    Size: 3.53 Gb ( 3 697 810,00 KBytes ) - DVD-5
    Enabled regions: 1, 2, 3, 4, 5, 6, 7, 8

    VTS_01 :
    Play Length: 00:00:19
    Video: PAL 4:3 (720x576) VBR
    Audio:
    Russian (Dolby AC3, 2 ch)

    VTS_02 :
    Play Length: 00:00:02
    Video: PAL 16:9 (720x576) VBR, Auto Letterboxed
    Audio:
    Russian (Dolby AC3, 2 ch)

    VTS_03 :
    Play Length: 01:21:39
    Video: PAL 16:9 (720x576) VBR, Auto Letterboxed
    Audio:
    Russian (Dolby AC3, 2 ch)
    Russian (Dolby AC3, 6 ch)
Свернуть
mediainfo
    Формат : MPEG-PS
    Размер файла : 1024 Мбайт
    Продолжительность : 23 м.
    Режим общего битрейта : Переменный
    Общий поток : 6197 Кбит/сек

    Видео
    Идентификатор : 224 (0xE0)
    Формат : MPEG Video
    Версия формата : Version 2
    Профиль формата : Main@Main
    Параметр BVOP формата : Да
    Параметр матрицы формата : По умолчанию
    Параметр GOP формата : M=3, N=12
    Продолжительность : 23 м.
    Вид битрейта : Переменный
    Битрейт : 5498 Кбит/сек
    Максимальный битрейт : 8400 Кбит/сек
    Ширина : 720 пикселей
    Высота : 576 пикселей
    Соотношение сторон : 16:9
    Частота кадров : 25,000 кадров/сек
    Стандарт вещания : PAL
    Цветовое пространство : YUV
    Субдискретизация насыщенности : 4:2:0
    Битовая глубина : 8 бит
    Тип развёртки : Чересстрочная
    Порядок развёртки : Верхнее поле первое
    Метод сжатия : С потерями
    Бит/(Пиксели*Кадры) : 0.530
    Размер потока : 908 Мбайт (89%)

    Аудио #1
    Идентификатор : 189 (0xBD)-128 (0x80)
    Формат : AC-3
    Формат/Информация : Audio Coding 3
    Расширение режима : CM (complete main)
    Режим смешивания : DVD-Video
    Продолжительность : 23 м.
    Вид битрейта : Постоянный
    Битрейт : 192 Кбит/сек
    Каналы : 2 канала
    Расположение каналов : Front: L R
    Частота : 48,0 КГц
    Битовая глубина : 16 бит
    Метод сжатия : С потерями
    Размер потока : 31,7 Мбайт (3%)

    Аудио #2
    Идентификатор : 189 (0xBD)-129 (0x81)
    Формат : AC-3
    Формат/Информация : Audio Coding 3
    Расширение режима : CM (complete main)
    Режим смешивания : DVD-Video
    Продолжительность : 23 м.
    Вид битрейта : Постоянный
    Битрейт : 384 Кбит/сек
    Каналы : 6 каналов
    Расположение каналов : Front: L C R, Side: L R, LFE
    Частота : 48,0 КГц
    Битовая глубина : 16 бит
    Метод сжатия : С потерями
    Размер потока : 63,4 Мбайт (6%)

    Меню

Свернуть
Скриншоты

меню
Изображение

Изображение

Изображение
Свернуть
Изображение

Изображение

Изображение

Изображение
Свернуть
Не в сети
Профиль  
 Добавлено: 2013-01-20 20:50 (спустя 1 день 20 часов)
Аватара пользователя
Стаж: 6 лет 11 месяцев
Сообщений: 167
вот это рейтинг!!)))
Не в сети
Профиль  
 Добавлено: 2013-01-26 13:58 (спустя 5 дней)
Аватара пользователя
Стаж: 8 лет 6 месяцев
Сообщений: 5
говнофильм :ze_le_ny:
бред полный
Не в сети
Профиль  
 Добавлено: 2013-02-07 15:03 (спустя 12 дней)
Аватара пользователя
Стаж: 7 лет 4 месяца
Возраст: 24
Сообщений: 510
Спасибок: 4597
Лайков: 2
Апартаменты 1303 - прикольнее было бы если бы они фильм выпустили в 2013 году=)
_________________
"It's a cold world, everybody need a hood"
Не в сети
Профиль  
Начать новую темуОтветить на тему  [ Сообщений: 4 ] 
Вы не можете начинать темы
Вы не можете отвечать на сообщения
Вы не можете редактировать свои сообщения
Вы не можете удалять свои сообщения