Правила форума

  • В этом разделе создание новых тем Запрещено.
  • Для создания новых тем пользуйтесь Корневым разделом DVD и HD фильмы.
Начать новую темуОтветить на тему  [ 1 сообщение ] 
Торрент файл
Размер: 4.35 GB • Зарегистрирован: 4 года 7 месяцев • Статус: Проверено
Скачан: 47 раз • Желающих скачать: 0 • Поблагодарили: 9 раз
 Раздают: 0  |  0 KB/s  ]   Качают: 0  |  0 KB/s  ] 
 Полного источника не было 3 года 2 месяца 
Сообщения
 Добавлено: 2012-04-28 22:17
Руководитель релиз-группы
Аватара пользователя
Стаж: 7 лет 4 месяца
Возраст: 31
Сообщений: 3407
Спасибок: 46729
Лайков: 5
Изображение

Артист
The Artist


Год выпуска: 2011
Страна: Франция, Бельгия
Слоган: «Любовь как в кино»
Жанр: драма, мелодрама, комедия
Продолжительность: 01:36:06
Перевод: Профессиональный (полное дублирование)
Режиссер: Мишель Хазанавичус
Сценарий: Мишель Хазанавичус
Продюсер: Жан Дюжарден, Тома Лангманн, Эммануэль Монтамат
Оператор: Гийом Шиффман
Композитор: Людовик Бурсе
В ролях: Жан Дюжарден, Беренис Бежо, Джон Гудмен, Джеймс Кромуэлл, Пенелопа Энн Миллер, Мисси Пайл, Бет Грант, Эд Лотер, Джоэль Мюррей, Битси Таллоч
Бюджет: $15 000 000
Сборы в мире: $127 216 017
Описание: Голливуд, 1927 год. Звезда немого кино Джордж Валентайн и слышать не хочет о микрофонах на съемочной площадке. А безнадежно влюбленная в Валентайна статистка Пеппи Миллер стремительно набирает популярность в новом звуковом кинематографе. Только любовь поможет героям обрести счастье.
Изображение
MPAA: Изображение
Релиз: Изображение Раздача группы: Изображение
Качество: DVD5 (сжатый)
Формат: DVD Video
Видео: MPEG2; PAL 16:9 (720x576)
Аудио #1: Dolby AC3, 6 ch, 256 Kbps Russian
Аудио #2: Dolby AC3, 2 ch, 192 Kbps Russian
Субтитры: украинские
Дополнительная информация :
Исходник : DVD9 (7.29 Гб) [лицензия, PAL 16:9]
Убрано : фильм о фильме, 3 рекламных ролика
Сжатие фильма : нет
Изображение
использовались программы
    DVDRemakePro
    Photoshop
    MuxMan
    Работоспособность проверена на софтовом плеере Windows Media и бытовом LG
Свернуть
DVDInfo
    Title: Artist_2011_DVD5.[R.G.Daredevil]
    Size: 4.35 Gb ( 4 558 438,00 KBytes ) - DVD-5
    Enabled regions: 1, 2, 3, 4, 5, 6, 7, 8

    VTS_01 :
    Play Length: 00:00:10
    Video: PAL 16:9 (720x576) VBR, Auto Letterboxed

    VTS_02 :
    Play Length: 01:36:06
    Video: PAL 16:9 (720x576) VBR, Auto Letterboxed
    Audio:
    Russian (Dolby AC3, 6 ch)
    Russian (Dolby AC3, 2 ch)
    Subtitles:
    Ukrainian

    VTS_03 :
    Play Length: 00:01:48
    Video: PAL 16:9 (720x576) VBR, Auto Letterboxed
    Audio:
    Russian (Dolby AC3, 2 ch)
    Russian (Dolby AC3, 2 ch)
    Subtitles:
    Ukrainian

    VTS_04 :
    Play Length: 00:01:28
    Video: PAL 16:9 (720x576) VBR, Auto Letterboxed
    Audio:
    Russian (Dolby AC3, 2 ch)
    Russian (Dolby AC3, 2 ch)
    Subtitles:
    Ukrainian

    VTS_05 :
    Play Length: 00:01:38
    Video: PAL 16:9 (720x576) VBR, Auto Letterboxed
    Audio:
    Russian (Dolby AC3, 2 ch)
    Russian (Dolby AC3, 2 ch)
    Subtitles:
    Ukrainian

    VTS_06 :
    Play Length: 00:01:48
    Video: PAL 16:9 (720x576) VBR, Auto Letterboxed
    Audio:
    Russian (Dolby AC3, 2 ch)
    Russian (Dolby AC3, 2 ch)
    Subtitles:
    Ukrainian

    VTS_07 :
    Play Length: 00:01:16
    Video: PAL 16:9 (720x576) VBR, Auto Letterboxed
    Audio:
    Russian (Dolby AC3, 2 ch)
    Russian (Dolby AC3, 2 ch)
    Subtitles:
    Ukrainian

    VTS_08 :
    Play Length: 00:00:00
    Video: PAL 16:9 (720x576) VBR, Auto Letterboxed
    Audio:
    Russian (Dolby AC3, 2 ch)
    Russian (Dolby AC3, 2 ch)
    Subtitles:
    Ukrainian

    VTS_09 :
    Play Length: 00:00:00
    Video: PAL 16:9 (720x576) VBR, Auto Letterboxed
    Audio:
    Russian (Dolby AC3, 2 ch)
    Russian (Dolby AC3, 2 ch)
    Subtitles:
    Ukrainian

    VTS_10 :
    Play Length: 00:00:00
    Video: PAL 16:9 (720x576) VBR, Auto Letterboxed
    Audio:
    Russian (Dolby AC3, 2 ch)
    Russian (Dolby AC3, 2 ch)
    Subtitles:
    Ukrainian

    VTS_11 :
    Play Length: 00:00:00
    Video: PAL 16:9 (720x576) VBR, Auto Letterboxed
    Audio:
    Russian (Dolby AC3, 2 ch)
    Russian (Dolby AC3, 2 ch)
    Subtitles:
    Russian
Свернуть
mediainfo
    Формат : MPEG-PS
    Размер файла : 1024 Мбайт
    Продолжительность : 22 м.
    Режим общего битрейта : Переменный
    Общий поток : 6371 Кбит/сек

    Видео
    Идентификатор : 224 (0xE0)
    Формат : MPEG Video
    Версия формата : Version 2
    Профиль формата : Main@Main
    Параметр BVOP формата : Да
    Параметр матрицы формата : Выборочная
    Параметр GOP формата : M=3, N=12
    Продолжительность : 22 м.
    Вид битрейта : Переменный
    Битрейт : 5796 Кбит/сек
    Максимальный битрейт : 9000 Кбит/сек
    Ширина : 720 пикселей
    Высота : 576 пикселей
    Соотношение сторон : 16:9
    Частота кадров : 25,000 кадров/сек
    Стандарт вещания : PAL
    Цветовое пространство : YUV
    Субдискретизация насыщенности : 4:2:0
    Битовая глубина : 8 бит
    Тип развёртки : Чересстрочная
    Порядок развёртки : Верхнее поле первое
    Метод сжатия : С потерями
    Бит/(Пиксели*Кадры) : 0.559
    Размер потока : 932 Мбайт (91%)

    Аудио #1
    Идентификатор : 189 (0xBD)-128 (0x80)
    Формат : AC-3
    Формат/Информация : Audio Coding 3
    Расширение режима : CM (complete main)
    Режим смешивания : DVD-Video
    Продолжительность : 22 м.
    Вид битрейта : Постоянный
    Битрейт : 256 Кбит/сек
    Каналы : 6 каналов
    Расположение каналов : Front: L C R, Side: L R, LFE
    Частота : 48,0 КГц
    Битовая глубина : 16 бит
    Метод сжатия : С потерями
    Размер потока : 41,1 Мбайт (4%)

    Аудио #2
    Идентификатор : 189 (0xBD)-129 (0x81)
    Формат : AC-3
    Формат/Информация : Audio Coding 3
    Расширение режима : CM (complete main)
    Режим смешивания : DVD-Video
    Продолжительность : 22 м.
    Вид битрейта : Постоянный
    Битрейт : 192 Кбит/сек
    Каналы : 2 канала
    Расположение каналов : Front: L R
    Частота : 48,0 КГц
    Битовая глубина : 16 бит
    Метод сжатия : С потерями
    Размер потока : 30,9 Мбайт (3%)

    Текст
    Идентификатор : 189 (0xBD)-32 (0x20)
    Формат : RLE
    Формат/Информация : Run-length encoding
    Режим смешивания : DVD-Video
    Задержка видео : 9 с. 320 мс.

    Меню
Свернуть
Знаете ли Вы, что...
  • На Каннском кинофестивале приза был удостоен не только Жан Дюжарден, но и Джек-Рассел-терьер по кличке Угги. Он получил специальный приз PALM DOG, который на фестивале ежегодно вручают за лучшую роль в исполнении собаки.
  • На Каннском кинофестивале после показа фильма зал 10 минут аплодировал стоя.
  • Джону Гудману понадобилось всего четыре минуты, чтобы согласиться на роль в картине, настолько ему понравилась задумка режиссера.
  • Решение снимать картину в Голливуде, в настоящих исторических местах, увеличило бюджет картины почти до 20 миллионов долларов.
  • Из-за излишней четкости и недостаточной зернистости современной черно-белой пленки фильм снимался на цветную пленку. Однако применялись специальные фильтры, чтобы сделать черный и белый более яркими или блеклыми в зависимости от настроения сцены.
Свернуть
Скриншоты

меню
Изображение
Изображение
Изображение
Изображение
Свернуть
Изображение
Изображение
Изображение
Изображение
Свернуть
Не в сети
Профиль  
Начать новую темуОтветить на тему  [ 1 сообщение ] 
Вы не можете начинать темы
Вы не можете отвечать на сообщения
Вы не можете редактировать свои сообщения
Вы не можете удалять свои сообщения