Правила форума

  • В этом разделе создание новых тем Запрещено.
  • Для создания новых тем пользуйтесь Корневым разделом DVD и HD фильмы.
Начать новую темуОтветить на тему  [ 1 сообщение ] 
Торрент файл
Размер: 6.12 GB • Зарегистрирован: 4 года 6 месяцев • Статус: Проверено
Скачан: 77 раз • Желающих скачать: 0 • Поблагодарили: 15 раз
 Раздают: 0  |  0 KB/s  ]   Качают: 0  |  0 KB/s  ] 
 Полного источника не было 3 года 2 месяца 
Сообщения
 Добавлено: 2012-05-03 21:00
Аватара пользователя
Стаж: 5 лет 5 месяцев
Возраст: 30
Сообщений: 353
Спасибок: 7455
Бедная богатая девочка / Young Adult

Изображение


Год выпуска: 2011
Страна: США (Denver and Delilah Productions, Indian Paintbrush, Mandate Pictures, Mr. Mudd, Paramount Pictues, Right of Way Films)
Слоган: «Все становятся старше. Но не все взрослеют.»
Жанр: драма, комедия
Продолжительность: 01:33:39
Перевод: Оригинальная звуковая дорожка + Профессиональный (дубляж)
Дублеры: Ольга Зубкова, Диомид Виноградов, Алексей Мясников + Оригинальная звуковая дорожка
Субтитры: Русские, Английские, Украинские

Режиссёр: Джейсон Райтман / Jason Reitman
Сценарист: Диабло Коуди
Продюсер: Мэйсон Новик, Джейсон Райтман, Расселл Смит
Оператор: Эрик Стилберг
Композитор: Рольф Кент
В ролях: Шарлиз Терон, Пэттон Освальт, Патрик Уилсон, Элизабет Ризер, Коллетт Вульф, Джилл Айкенберри, Ричард Бекинс, Мэри Бет Херт, Кейт Ноулин, Вирджиния ДаРе Полин

Описание: Трагикомедия про писательницу, подрабатывающую литературным негром и выдающую тинейджерские романы, отправившуюся в родной город на поиски бывшего бойфренда, который успел обзавестись семьей и ребенком.

Доп.информация: Комментарии режиссера, ужасная правда: разбор сцены, удаленные сцены
Рейтинг MPAA: Рейтинг R (Подростки до 17 лет допускаются на фильм только в сопровождении одного из родителей)
Мировая премьера: 9 декабря 2011
Премьера в России: 19 января 2012, «Централ Партнершип»
Бюджет: $12 000 000
Кассовые сборы: $22 654 650

Изображение Изображение Изображение


Качество: DVD9 R5
Формат: DVD Video
Видео кодек: MPEG2
Аудио кодек: AC3 (Dolby Digital)
Видео: PAL 16:9 (720x576(0.692)) MPEG Video, 25,000 кадр/сек, 7170 Кбит/сек
Аудио #1: English (Dolby AC3, 6 ch) 448 Кбит/сек, 48,0 КГц [Оригинальная звуковая дорожка]
Аудио #2: Russian (Dolby AC3, 6 ch) 448 Кбит/сек, 48,0 КГц [Профессиональный (дубляж)]
Аудио #3: English (Dolby AC3, 2 ch) 192 Кбит/сек, 48,0 КГц [Оригинальная звуковая дорожка]
Субтитры: Русские, Английские, Украинские

"DVDInfo"
Title:
Size: 6.12 Gb ( 6 412 582 KBytes ) - DVD-9
Enabled regions: 1, 2, 3, 4, 5, 6, 7, 8

VTS_01 :
Play Length:
Video: NTSC 16:9 (720x480) VBR, Auto Pan&Scan

VTS_02 :
Play Length: 00:02:07+00:00:41+00:00:53+00:00:34
Video: PAL 16:9 (720x576) VBR, Auto Pan&Scan
Audio:
English (Dolby AC3, 2 ch)
Subtitles:
English
Russian
Ukrainian

VTS_03 :
Play Length: 00:06:08
Video: PAL 16:9 (720x576) VBR, Auto Pan&Scan
Audio:
English (Dolby AC3, 2 ch)
Subtitles:
English
Russian
Ukrainian

VTS_04 :
Play Length:
Video: PAL 16:9 (720x576) VBR, Auto Letterboxed
Audio:
Not specified (Dolby AC3, 2 ch)
Subtitles:
Not specified

VTS_05 :
Play Length: 00:00:25
Video: PAL 16:9 (720x576) VBR, Auto Letterboxed
Audio:
Not specified (Dolby AC3, 2 ch)

VTS_06 :
Play Length: 00:00:10
Video: PAL 16:9 (720x576) VBR, Auto Letterboxed
Audio:
Not specified (Dolby AC3, 2 ch)

VTS_07 :
Play Length:
Video: NTSC 16:9 (720x480) VBR, Auto Pan&Scan

VTS_08 :
Play Length:
Video: NTSC 16:9 (720x480) VBR, Auto Pan&Scan

VTS_09 :
Play Length:
Video: NTSC 16:9 (720x480) VBR, Auto Pan&Scan

VTS_10 :
Play Length: 00:00:15
Video: PAL 16:9 (720x576) VBR, Auto Pan&Scan
Audio:
Not specified (Dolby AC3, 2 ch)

VTS_11 :
Play Length:
Video: NTSC 16:9 (720x480) VBR, Auto Pan&Scan

VTS_12 :
Play Length:
Video: NTSC 16:9 (720x480) VBR, Auto Pan&Scan

VTS_13 :
Play Length:
Video: NTSC 16:9 (720x480) VBR, Auto Pan&Scan

VTS_14 :
Play Length:
Video: NTSC 16:9 (720x480) VBR, Auto Pan&Scan

VTS_15 :
Play Length:
Video: NTSC 16:9 (720x480) VBR, Auto Pan&Scan

VTS_16 :
Play Length: 00:00:10+01:29:49
Video: PAL 16:9 (720x576) VBR, Auto Pan&Scan
Audio:
English (Dolby AC3, 6 ch)
Russian (Dolby AC3, 6 ch)
English (Dolby AC3, 2 ch)
Subtitles:
English
Russian
Ukrainian
English

VTS_17 :
Play Length:
Video: NTSC 16:9 (720x480) VBR, Auto Pan&Scan

VTS_18 :
Play Length:
Video: NTSC 16:9 (720x480) VBR, Auto Pan&Scan

VTS_19 :
Play Length:
Video: NTSC 16:9 (720x480) VBR, Auto Pan&Scan

VTS_20 :
Play Length:
Video: NTSC 16:9 (720x480) VBR, Auto Pan&Scan

VTS_21 :
Play Length:
Video: NTSC 16:9 (720x480) VBR, Auto Pan&Scan

VTS_22 :
Play Length:
Video: PAL 16:9 (720x576) VBR, Auto Letterboxed
Свернуть

"MediaInfo"
Общее
Полное имя : J:\Новинки 2012\Bednaja.bogataja.devochka.2011.DVD9\VIDEО_TS\VTS_16_2.VOB
Формат : MPEG-PS
Размер файла : 1024 Мбайт
Продолжительность : 16 м.
Режим общего битрейта : Переменный
Общий поток : 8425 Кбит/сек

Видео
Идентификатор : 224 (0xE0)
Формат : MPEG Video
Версия формата : Version 2
Профиль формата : Main@Main
Параметр BVOP формата : Да
Параметр матрицы формата : Выборочная
Продолжительность : 16 м.
Вид битрейта : Переменный
Битрейт : 7170 Кбит/сек
Максимальный битрейт : 9800 Кбит/сек
Ширина : 720 пикселей
Высота : 576 пикселей
Соотношение сторон : 16:9
Частота кадров : 25,000 кадров/сек
Стандарт вещания : PAL
Цветовое пространство : YUV
Субдискретизация насыщенности : 4:2:0
Битовая глубина : 8 бит
Тип развёртки : Прогрессивная
Порядок развёртки : Верхнее поле первое
Метод сжатия : С потерями
Бит/(Пиксели*Кадры) : 0.692
Размер потока : 871 Мбайт (85%)

Аудио #1
Идентификатор : 189 (0xBD)-128 (0x80)
Формат : AC-3
Формат/Информация : Audio Coding 3
Расширение режима : CM (complete main)
Параметр Endianness формата : Big
Режим смешивания : DVD-Video
Продолжительность : 16 м.
Вид битрейта : Постоянный
Битрейт : 448 Кбит/сек
Каналы : 6 каналов
Расположение каналов : Front: L C R, Side: L R, LFE
Частота : 48,0 КГц
Битовая глубина : 16 бит
Метод сжатия : С потерями
Задержка видео : -744 мс.
Размер потока : 54,4 Мбайт (5%)

Аудио #2
Идентификатор : 189 (0xBD)-129 (0x81)
Формат : AC-3
Формат/Информация : Audio Coding 3
Расширение режима : CM (complete main)
Параметр Endianness формата : Big
Режим смешивания : DVD-Video
Продолжительность : 16 м.
Вид битрейта : Постоянный
Битрейт : 448 Кбит/сек
Каналы : 6 каналов
Расположение каналов : Front: L C R, Side: L R, LFE
Частота : 48,0 КГц
Битовая глубина : 16 бит
Метод сжатия : С потерями
Задержка видео : -776 мс.
Размер потока : 54,4 Мбайт (5%)

Аудио #3
Идентификатор : 189 (0xBD)-130 (0x82)
Формат : AC-3
Формат/Информация : Audio Coding 3
Расширение режима : CM (complete main)
Параметр Endianness формата : Big
Режим смешивания : DVD-Video
Продолжительность : 16 м.
Вид битрейта : Постоянный
Битрейт : 192 Кбит/сек
Каналы : 2 канала
Расположение каналов : Front: L R
Частота : 48,0 КГц
Битовая глубина : 16 бит
Метод сжатия : С потерями
Задержка видео : -680 мс.
Размер потока : 23,3 Мбайт (2%)

Текст #1
Идентификатор : 189 (0xBD)-32 (0x20)
Формат : RLE
Формат/Информация : Run-length encoding
Режим смешивания : DVD-Video
Продолжительность : 16 м.
Задержка видео : 1 с. 440 мс.

Текст #2
Идентификатор : 189 (0xBD)-33 (0x21)
Формат : RLE
Формат/Информация : Run-length encoding
Режим смешивания : DVD-Video
Продолжительность : 16 м.
Задержка видео : 1 с. 440 мс.

Текст #3
Идентификатор : 189 (0xBD)-34 (0x22)
Формат : RLE
Формат/Информация : Run-length encoding
Режим смешивания : DVD-Video
Продолжительность : 16 м.
Задержка видео : 1 с. 440 мс.

Текст #4
Идентификатор : 189 (0xBD)-35 (0x23)
Формат : RLE
Формат/Информация : Run-length encoding
Режим смешивания : DVD-Video
Продолжительность : 16 м.
Задержка видео : 2 с. 840 мс.

Свернуть


Скриншоты
Скриншоты меню
Изображение
Изображение
Изображение
Изображение
Изображение
Изображение
Изображение
Изображение
Свернуть
Скриншоты фильма
Изображение
Изображение
Изображение
Изображение
Изображение
Изображение
Изображение
Изображение
Изображение
Изображение
Свернуть
Скриншоты доп.матерьялов
Изображение
Изображение
Изображение
Изображение
Изображение
Изображение
Свернуть
Свернуть


Изображение
Не в сети
Профиль  
Начать новую темуОтветить на тему  [ 1 сообщение ] 
Вы не можете начинать темы
Вы не можете отвечать на сообщения
Вы не можете редактировать свои сообщения
Вы не можете удалять свои сообщения