Правила форума

  • В этом разделе создание новых тем Запрещено.
  • Для создания новых тем пользуйтесь Корневым разделом DVD и HD фильмы.
Начать новую темуОтветить на тему  [ Сообщений: 5 ] 
Торрент файл
Размер: 4.35 GB • Зарегистрирован: 4 года 6 месяцев • Статус: Проверено
Скачан: 303 раза • Желающих скачать: 0 • Поблагодарили: 55 раз
 Раздают: 0  |  0 KB/s  ]   Качают: 0  |  0 KB/s  ] 
 Полного источника не было 2 года 6 месяцев 
Сообщения
 Добавлено: 2012-05-22 08:43
DVD Release Group
Аватара пользователя
Стаж: 7 лет 1 месяц
Сообщений: 3546
Спасибок: 246974
Лайков: 1018
Белоснежка: Месть гномов

Mirror Mirror

«Новые страницы любимой сказки»


Изображение


Год выпуска: 2012
Страна: США
Жанр: Фэнтези, драма, комедия, приключения
Продолжительность: 01:43:53
Перевод: Профессиональный (полное дублирование)
Cубтитры: Нет
Режиссер: Тарсем Синх
В ролях: Джулия Робертс, Лили Коллинз, Шон Бин, Арми Хаммер, Натан Лейн, Джордан Прентис, Марк Повинелли, Джо Гнофо, Дэнни Вудберн, Себастьян Сарасено, Мартин Клеббэ
Описание: Злая Королева, мечтающая выйти замуж за красивого и богатого Принца, хитростью выдворяет из дворца Белоснежку и берет власть в свои руки. Но милая девушка не погибла в темном дремучем лесу, а связалась с бандой гномов-разбойников. Вместе они отомстят Злодейке!
Кинопоиск: 6.3 (4989)
IMDb: 5.8 (8974)
Дополнительно:
Исходник: DVD9 (7.08 GB) [лицензия, PAL 16:9].
Убрано: смотрите на DVD, Russian (Dolby AC3, 2 ch), заставки и предупреждение.
Сжатие фильма 37,3% сжатия (без учета ручного перераспределения битрейта, за счет большего сжатия конечных титров).
Работоспособность проверена на софтовом плеере Windows Media и бытовом LG.
Качество: DVD5 (сжатый)
Формат: DVD Video
Видео кодек: MPEG2
Аудио кодек: AC3
Видео: 720х576 25fps 5449Kbps
Аудио: 48kHz 6ch 384Kbps
"MediaInfo"
Формат : MPEG-PS
Размер файла : 1024 Мбайт
Продолжительность : 24 м.
Режим общего битрейта : Переменный
Общий поток : 5952 Кбит/сек

Видео
Идентификатор : 224 (0xE0)
Формат : MPEG Video
Версия формата : Version 2
Профиль формата : Main@Main
Параметр BVOP формата : Да
Параметр матрицы формата : Выборочная
Продолжительность : 24 м.
Вид битрейта : Переменный
Битрейт : 5449 Кбит/сек
Ширина : 720 пикселей
Высота : 576 пикселей
Соотношение сторон : 2,35:1
Частота кадров : 25,000 кадров/сек
Стандарт вещания : PAL
Цветовое пространство : YUV
Субдискретизация насыщенности : 4:2:0
Битовая глубина : 8 бит
Метод сжатия : С потерями
Бит/(Пиксели*Кадры) : 0.526
Размер потока : 938 Мбайт (92%)

Аудио
Идентификатор : 189 (0xBD)-128 (0x80)
Формат : AC-3
Формат/Информация : Audio Coding 3
Расширение режима : CM (complete main)
Режим смешивания : DVD-Video
Продолжительность : 24 м.
Вид битрейта : Постоянный
Битрейт : 384 Кбит/сек
Каналы : 6 каналов
Расположение каналов : Front: L C R, Side: L R, LFE
Частота : 48,0 КГц
Битовая глубина : 16 бит
Метод сжатия : С потерями
Размер потока : 66,1 Мбайт (6%)

Меню
Свернуть

"Скриншоты"
Изображение
Изображение
Изображение
Изображение
Изображение
Изображение
Изображение
Изображение
Изображение
Изображение
Свернуть

Раздача группы:
Изображение
Не в сети
Профиль  
 Добавлено: 2012-05-22 13:32 (спустя 4 часа)
Стаж: 6 лет 3 месяца
Сообщений: 493
Лайков: 28
Ну и как? Круче, чем в клипе Рамштайна? :hi_hi_hi:
Не в сети
Профиль  
 Добавлено: 2012-05-24 21:16 (спустя 2 дня 7 часов)
Стаж: 7 лет 2 месяца
Сообщений: 81
Боже мой!!!
Что у неё с БРОВЯМИ?!-первая мысль,после того как увидел белоснежку.
ОНА что дочь Брежнева?!?!
Не в сети
Профиль  
 Добавлено: 2012-06-02 19:24 (спустя 8 дней)
Аватара пользователя
Стаж: 6 лет 11 месяцев
Сообщений: 167
красивая девочка ..
Не в сети
Профиль  
 Добавлено: 2012-06-18 10:13 (спустя 15 дней)
Аватара пользователя
Стаж: 8 лет 7 месяцев
Сообщений: 32
спаибо.посмотрим :-D
Не в сети
Профиль  
Начать новую темуОтветить на тему  [ Сообщений: 5 ] 
Вы не можете начинать темы
Вы не можете отвечать на сообщения
Вы не можете редактировать свои сообщения
Вы не можете удалять свои сообщения