Правила форума

  • В этом разделе создание новых тем Запрещено.
  • Для создания новых тем пользуйтесь Корневым разделом DVD и HD фильмы.
Начать новую темуОтветить на тему  [ Сообщений: 2 ] 
Торрент файл
Размер: 4.37 GB • Зарегистрирован: 4 года 11 месяцев • Статус: Проверено
Скачан: 168 раз • Желающих скачать: 0 • Поблагодарили: 34 раза
 Раздают: 0  |  0 KB/s  ]   Качают: 0  |  0 KB/s  ] 
 Полного источника не было 3 года 2 месяца 
Сообщения
 Добавлено: 2011-12-08 14:23
Руководитель релиз-группы
Аватара пользователя
Стаж: 7 лет 5 месяцев
Возраст: 31
Сообщений: 3407
Спасибок: 46729
Лайков: 5
Изображение

Без истерики!
Hysteria


Год выпуска: 2011
Страна: Германия, Франция, Великобритания, Люксембург
Слоган: «Правдивая история одного пикантного изобретения»
Жанр: мелодрама, комедия
Продолжительность: 01:35:07
Перевод: Профессиональный (полное дублирование)
Режиссер: Таня Уэкслер
Сценарий: Йон Лиза Дайер, Стивен Дайер, Howard Gensler
Продюсер: Трэйси Бекер, Джуди Каиро, Сара Кертис
Оператор: Шон Боббитт
Композитор: Кристиан Хенсон
В ролях: Фелисити Джонс, Мэгги Джилленхол, Хью Дэнси, Руперт Эверетт, Джонатан Прайс, Джемма Джонс, Анна Чэнселлор, Тобиаш Мензес, Шеридан Смит, Кейт Линдер...
Описание: Викторианская Англия, 1880 год. Выпускник медицинской школы Мортимер Грэнвиль устраивается на работу в кабинет доктора Далримпла, который славится на весь Лондон уникальным методом лечения «истерии» - женского перевозбуждения - с помощью интимного массажа. Популярность «ручного» метода Далримпла растет с астрономической скоростью, и справляться с наплывом страждущих пациенток становится все сложнее.
С помощью своего друга Эдмунда молодой и прогрессивный врач находит изящное решение проблемы: приятели изобретают элегантный электрический приборчик, который вполне может заменить золотые руки мистера Далрима. Известие о чудо-изобретении мгновенно распространяется среди лондонских дам...
Тем временем Мортимер влюбился в Шарлотту, самую красивую, свободолюбивую и яркую дочь своего работодателя.
Изображение
Релиз: Изображение Раздача группы: Изображение
Качество: DVD5 (сжатый)
Формат: DVD Video
Видео: MPEG2; PAL 16:9 (720x576)
Аудио: Dolby AC3, 6 ch, 384 Kbps Russian
Субтитры: русские
Дополнительная информация :
Исходник : DVD9 (6.93 Гб) [лицензия, PAL 16:9]
Убрано : часть допов, реклама, заставки, предупреждения, Russian (Dolby AC3, 2 ch)
Сжатие фильма : нет
использовались программы
    DVDRemakePro
    Photoshop
    MuxMan
    Работоспособность проверена на софтовом плеере Windows Media и бытовом LG
Свернуть
DVDInfo
    Title: Bez.isteriki_2011_DVD5.[R.G.Daredevil]
    Size: 4.37 Gb ( 4 581 564,00 KBytes ) - DVD-5
    Enabled regions: 1, 2, 3, 4, 5, 6, 7, 8

    VTS_01 :
    Play Length: 00:00:01+01:35:07+00:00:01
    Video: PAL 16:9 (720x576) VBR, Auto Letterboxed
    Audio:
    Russian (Dolby AC3, 6 ch)
    Russian (Dolby AC3, 2 ch)
    Subtitles:
    Russian

    VTS_02 :
    Play Length: 00:00:00+00:00:00+00:00:00
    Video: PAL 16:9 (720x576) VBR, Auto Letterboxed
    Audio:
    Russian (Dolby AC3, 6 ch)

    VTS_03 :
    Play Length: 00:00:01+00:00:01+00:00:01+00:00:01+00:16:46+00:00:01+00:00:01+00:00:01+00:00:01
    Video: PAL 16:9 (720x576) VBR, Auto Letterboxed
    Audio:
    Russian (Dolby AC3, 2 ch)

    VTS_04 :
    Play Length: 00:00:01
    Video: PAL 16:9 (720x576) VBR, Auto Letterboxed
    Audio:
    Russian (Dolby AC3, 2 ch)

    VTS_05 :
    Play Length: 00:00:01
    Video: PAL 16:9 (720x576) VBR, Auto Letterboxed
    Audio:
    Russian (Dolby AC3, 2 ch)

    VTS_06 :
    Play Length: 00:00:01
    Video: PAL 4:3 (720x576) VBR
    Audio:
    Russian (Dolby AC3, 2 ch)
Свернуть
mediainfo
    Формат : MPEG-PS
    Размер файла : 1024 Мбайт
    Продолжительность : 26 м.
    Общий поток : 5436 Кбит/сек

    Видео
    Идентификатор : 224 (0xE0)
    Формат : MPEG Video
    Версия формата : Version 2
    Профиль формата : Main@Main
    Параметр BVOP формата : Да
    Параметр матрицы формата : Выборочная
    Продолжительность : 26 м.
    Битрейт : 4944 Кбит/сек
    Максимальный битрейт : 6000 Кбит/сек
    Ширина : 720 пикселей
    Высота : 576 пикселей
    Соотношение сторон : 16:9
    Частота кадров : 25,000 кадров/сек
    Стандарт вещания : PAL
    Цветовое пространство : YUV
    Субдискретизация насыщенности : 4:2:0
    Битовая глубина : 8 бит
    Тип развёртки : Чересстрочная
    Порядок развёртки : Нижнее поле первое
    Метод сжатия : С потерями
    Бит/(Пиксели*Кадры) : 0.477
    Размер потока : 931 Мбайт (91%)

    Аудио
    Идентификатор : 189 (0xBD)-128 (0x80)
    Формат : AC-3
    Формат/Информация : Audio Coding 3
    Расширение режима : CM (complete main)
    Режим смешивания : DVD-Video
    Продолжительность : 26 м.
    Вид битрейта : Постоянный
    Битрейт : 384 Кбит/сек
    Каналы : 6 каналов
    Расположение каналов : Front: L C R, Side: L R, LFE
    Частота : 48,0 КГц
    Битовая глубина : 16 бит
    Метод сжатия : С потерями
    Размер потока : 72,3 Мбайт (7%)

    Текст
    Идентификатор : 189 (0xBD)-32 (0x20)
    Формат : RLE
    Формат/Информация : Run-length encoding
    Режим смешивания : DVD-Video
    Продолжительность : 26 м.

    Меню
Свернуть
Скриншоты

меню
Изображение
Изображение
Изображение
Изображение
Свернуть
Изображение
Изображение
Изображение
Изображение
Свернуть
Не в сети
Профиль  
 Добавлено: 2011-12-11 00:21 (спустя 2 дня 9 часов)
Стаж: 9 лет 1 месяц
Сообщений: 33
Спасибок: 34
Лайков: 1
Улыбнуло))) хороший фильм))
Не в сети
Профиль  
Начать новую темуОтветить на тему  [ Сообщений: 2 ] 
Вы не можете начинать темы
Вы не можете отвечать на сообщения
Вы не можете редактировать свои сообщения
Вы не можете удалять свои сообщения