Правила форума

  • В этом разделе создание новых тем Запрещено.
  • Для создания новых тем пользуйтесь Корневым разделом DVD и HD фильмы.
Начать новую темуОтветить на тему  [ Сообщений: 2 ] 
Торрент файл
Размер: 5.14 GB • Зарегистрирован: 5 лет 5 месяцев • Статус: Проверено
Скачан: 178 раз • Желающих скачать: 0 • Поблагодарили: 19 раз
 Раздают: 0  |  0 KB/s  ]   Качают: 0  |  0 KB/s  ] 
 Полного источника не было 3 года 2 месяца 
Сообщения
 Добавлено: 2011-06-28 20:37
Аватара пользователя
Стаж: 5 лет 6 месяцев
Возраст: 30
Сообщений: 353
Спасибок: 7455
Безбрачная неделя / Hall Pass

Изображение


Год выпуска: 2011
Страна: США (Conundrum Entertainment, New Line Cinema)
Слоган: «Каждый имеет право налево»
Жанр: мелодрама, комедия
Продолжительность: 01:45:20
Перевод: Оригинальная звуковая дорожка + Профессиональный (дубляж)
Дублеры: Пётр Иващенко, Денис Беспалый, Ирина Киреева, Татьяна Шитова, Рамиля Искандер + Профессиональный (дубляж)
Субтитры: Русские, Английские

Режиссёр: Бобби Фаррелли, Питер Фаррелли / Bobby Farrelly, Peter Farrelly
Сценарист: Пит Джонс, Питер Фаррелли, Кевин Барнетт
Продюсер: Марк Чарпентье, Чарльз Б. Весслер, Бобби Фаррелли
Оператор: Мэтью Ф. Леонетти

В ролях: Оуэн Уилсон, Джейсон Судейкис, Дженна Фишер, Кристина Эпплгейт, Никки Уилан, Ричард Дженкинс, Стивен Мерчант, Ларри Джо Кэмпбелл, Брюс Томас, Тайлер Хёхлин

Описание: Главный герой этой комедии Рик женат уже давно и ему уже успели поднадоесть семейные отношения. То же самое происходит и у его лучшего друга, вот они вместе и стали поглядывать на стройные ножки запретных красавиц. А тут еще и их жены заключили с ними уговор – всем предстоит безбрачная неделя, в течении которой допускаются отношения с другими девушками. Радости героев не было предела, но вдруг через некоторое время мужчины понимают, что такая свобода им не по вкусу, потому что жены тоже решили воспользоваться безбрачной неделей, а это их мужьям что-то не очень нравится. Да и все воспоминания о прелестях холостяцкой жизни кажутся теперь какими-то преувеличенными…

Доп.информация: Возмутительный дополнительный эпизод: Кокли (Ричард Дженкинс) одурачивает полицейского
Рейтинг MPAA: Рейтинг R (Подростки до 17 лет допускаются на фильм только в сопровождении одного из родителей)
Мировая премьера: $36 000 000
Премьера в России: + $38 100 000 = $83 160 734
Бюджет: 23 февраля 2011
Кассовые сборы: 21 апреля 2011, «Каро-Премьер»

Изображение Изображение Изображение

Качество: DVD9
Формат: DVD Video
Видео кодек: MPEG2
Аудио кодек: AC3 (Dolby Digital)
Видео: PAL 16:9 (720x576(0.567)) MPEG Video,25,000 кадр/сек, 5880 Кбит/сек
Аудио #1: English (Dolby AC3, 6 ch) 384 Кбит/сек, 48,0 КГц [Оригинальная звуковая дорожка]
Аудио #2: Russian (Dolby AC3, 6 ch) 384 Кбит/сек, 48,0 КГц [Профессиональный (дубляж)]
Аудио #3: Ukrainian (Dolby AC3, 6 ch) 384 Кбит/сек, 48,0 КГц [Профессиональный (дубляж)]
Субтитры: Русские, Английские

"DVDInfo"
Title: Мой диск
Size: 5.14 Gb ( 5 394 392 KBytes ) - DVD-9
Enabled regions: 1, 2, 3, 4, 5, 6, 7, 8

VTS_01 :
Play Length: 01:41:04+00:04:16
Video: PAL 16:9 (720x576) VBR, Auto Pan&Scan
Audio:
English (Dolby AC3, 6 ch)
Russian (Dolby AC3, 6 ch)
Ukrainian (Dolby AC3, 6 ch)
English (Dolby AC3, 2 ch)
Subtitles:
English
Russian
Russian

VTS_02 :
Play Length: 00:00:10+00:00:12
Video: PAL 16:9 (720x576) VBR, Auto Pan&Scan
Audio:
Not specified (Dolby AC3, 6 ch)
Subtitles:
Not specified
Свернуть

"MediaInfo"
Общее
Полное имя : E:\Новинки 2011\Bezbrachnaya.nedelya.2011.DVD9\VIDEO_TS\VTS_01_1.VOB
Формат : MPEG-PS
Размер файла : 1024 Мбайт
Продолжительность : 19 м.
Общий поток : 7175 Кбит/сек

Видео
Идентификатор : 224 (0xE0)
Формат : MPEG Video
Версия формата : Version 2
Профиль формата : Main@Main
Параметр BVOP формата : Да
Параметр матрицы формата : Выборочная
Продолжительность : 19 м.
Вид битрейта : Переменный
Битрейт : 5880 Кбит/сек
Номинальный битрейт : 9800 Кбит/сек
Ширина : 720 пикс.
Высота : 576 пикс.
Соотношение сторон : 16:9
Частота кадров : 25,000 кадр/сек
Стандарт вещания : PAL
Цветовое пространство : YUV
Подвыборка цветности : 4:2:0
Битовая глубина : 8 бит
Метод сжатия : С потерями
Бит/(Пиксели*Кадры) : 0.567
Размер потока : 839 Мбайт (82%)

Аудио #1
Идентификатор : 189 (0xBD)-128 (0x80)
Формат : AC-3
Формат/Информация : Audio Coding 3
Расширение режима : CM (complete main)
Режим смешивания : DVD-Video
Продолжительность : 19 м.
Вид битрейта : Постоянный
Битрейт : 384 Кбит/сек
Каналы : 6 каналов
Расположение каналов : Front: L C R, Side: L R, LFE
Частота : 48,0 КГц
Битовая глубина : 16 бит
Метод сжатия : С потерями
Размер потока : 54,8 Мбайт (5%)

Аудио #2
Идентификатор : 189 (0xBD)-129 (0x81)
Формат : AC-3
Формат/Информация : Audio Coding 3
Расширение режима : CM (complete main)
Режим смешивания : DVD-Video
Продолжительность : 19 м.
Вид битрейта : Постоянный
Битрейт : 384 Кбит/сек
Каналы : 6 каналов
Расположение каналов : Front: L C R, Side: L R, LFE
Частота : 48,0 КГц
Битовая глубина : 16 бит
Метод сжатия : С потерями
Задержка видео : -74 мс.
Размер потока : 54,8 Мбайт (5%)

Аудио #3
Идентификатор : 189 (0xBD)-130 (0x82)
Формат : AC-3
Формат/Информация : Audio Coding 3
Расширение режима : CM (complete main)
Режим смешивания : DVD-Video
Продолжительность : 19 м.
Вид битрейта : Постоянный
Битрейт : 384 Кбит/сек
Каналы : 6 каналов
Расположение каналов : Front: L C R, Side: L R, LFE
Частота : 48,0 КГц
Битовая глубина : 16 бит
Метод сжатия : С потерями
Задержка видео : -74 мс.
Размер потока : 54,8 Мбайт (5%)

Свернуть

Скриншоты
Скриншоты меню
Изображение
Изображение
Свернуть
Изображение
Изображение
Изображение
Изображение
Изображение
Изображение
Изображение
Изображение
Свернуть


Изображение
Не в сети
Профиль  
 Добавлено: 2011-07-10 13:50 (спустя 11 дней)
Аватара пользователя
Стаж: 8 лет
Сообщений: 836
Спасибо!!!!!!!!!!!
Не в сети
Профиль  
Начать новую темуОтветить на тему  [ Сообщений: 2 ] 
Вы не можете начинать темы
Вы не можете отвечать на сообщения
Вы не можете редактировать свои сообщения
Вы не можете удалять свои сообщения