Правила форума

  • В этом разделе создание новых тем Запрещено.
  • Для создания новых тем пользуйтесь Корневым разделом DVD и HD фильмы.
Начать новую темуОтветить на тему  [ Сообщений: 4 ] 
Торрент файл
Размер: 4.41 GB • Зарегистрирован: 4 года 2 месяца • Статус: Проверено
Скачан: 66 раз • Желающих скачать: 0 • Поблагодарили: 23 раза
 Раздают: 0  |  0 KB/s  ]   Качают: 0  |  0 KB/s  ] 
 Полного источника не было 3 года 2 месяца 
Сообщения
 Добавлено: 2012-09-11 21:39
Аватара пользователя
Стаж: 5 лет 6 месяцев
Возраст: 30
Сообщений: 353
Спасибок: 7455
Блокбастер 3D / Box Office 3D

Изображение


Год выпуска: 2011
Страна: Италия (Mondo Home Entertainment, Talents Factory)
Жанр: комедия
Продолжительность: 01:37:19
Перевод: Профессиональный (дубляж)

Режиссёр: Эцио Греджо / Ezio Greggio
Сценарист: Эцио Греджо, Фаусто Брицци, Марко Мартани
Продюсер: Stefano Giannotti, Андреа Борелла, Эцио Греджо
Оператор: Клаудио Замарион
Композитор: Альдо Ди Скальци, Пивио
В ролях: Алессандро Бьянчи, Анна Фальчи, Джина Лоллобриджида, Матильда Дондена, Антонелло Фассари

Описание: Что будет если все самые громкие фильмы последних лет собрать в один фильм? Да еще и в 3D? Правильно! Получится фильм Блокбастер 3D!
Вы встретитесь с профессором Козлонгом — специалистом по символам, которому предстоит раскрыть похищение из Лувра самой бездарной картины «Старый пьяница».
Вместе с Лиз Саламандер, девушкой с татуировкой дракона на мягком месте, ему предстоит проникнуть в секреты церкви Тухлого яйца и раскрыть код старого пьяницы.
Вы также встретитесь с Минимусом — командующим легионами Рима, который вышел за хлебом а вернулся через шесть лет, за которые жена успела родить ему троих детей.
Вы побываете на планете Виагратар, чьи плоды помогают усилить во сто крат мужскую силу, станете свидетелем тихой войнушки на борту подводной лодки стреляющей вместо торпед вантузом, отправитесь на последнее задание вместе со спецагентом 070, станете жертвой вампира на съемках фильма Сцумерки, увидите как познакомятся Харри Сфоттер, Ронц Спизли и Фродоло из футбольной команды Средиземья и узнаете, наконец, кто же замочил последнего крестного отца!

Доп.информация: нет
Рейтинг MPAA: Рейтинг R (Подростки до 17 лет допускаются на фильм только в сопровождении одного из родителей)
Мировая премьера: 30 августа 2011
Премьера в России: 9 августа 2012, «Top Film Distribution» 3D

Изображение Изображение Изображение

Качество: DVD9 R5
Формат: DVD Video
Видео кодек: MPEG2
Аудио кодек: AC3 (Dolby Digital)
Видео: PAL 16:9 (720x576(0.549)) MPEG Video, 25,000 кадр/сек, 5691 Кбит/сек
Аудио #1: Russian (Dolby AC3, 6 ch) 448 Кбит/сек, 48,0 КГц [Профессиональный (дубляж)]

"DVDInfo"
Title: Blokbaster.2011.DVD9
Size: 4.41 Gb ( 4 624 180,00 KBytes ) - DVD-9
Enabled regions: 1, 2, 3, 4, 5, 6, 7, 8

VTS_01 :
Play Length: 01:37:19
Video: PAL 16:9 (720x576) VBR, Auto Letterboxed
Audio:
Russian (Dolby AC3, 5 ch)

VTS_02 :
Play Length: 00:00:08
Video: PAL 16:9 (720x576) VBR, Auto Letterboxed

* Menus Information *

VIDEO_TS Menu
Video:
NTSC 4:3 (720x480) VBR
Auto Pan&Scan, Auto Letterboxed
Russian Language Unit :
Title Menu

VTS_01 Menu
Video:
PAL 16:9 (720x576) VBR
Auto Letterboxed
Audio:
Not specified (Dolby AC3, 2 ch)
Russian Language Unit :
Root Menu

VTS_02 Menu
Video:
NTSC 4:3 (720x480) VBR
Auto Pan&Scan, Auto Letterboxed
Language Unit :
Chapter (PTT) Menu
Свернуть

"MediaInfo"
Общее
Полное имя : J:\Новинки 2012\Blokbaster.2011.DVD9\VIDEO_TS\VTS_01_1.VOB
Формат : MPEG-PS
Размер файла : 1024 Мбайт
Продолжительность : 22 м.
Режим общего битрейта : Переменный
Общий поток : 6264 Кбит/сек
Библиотека кодирования : (c) 1998-2011 Womble Multimedia, Inc. / MPEG Video Wizard DVD 5.0.1.100 (03/2011) / Dec 19 2011

Видео
Идентификатор : 224 (0xE0)
Формат : MPEG Video
Версия формата : Version 2
Профиль формата : Main@Main
Параметр BVOP формата : Да
Параметр матрицы формата : По умолчанию
Параметр GOP формата : M=3, N=12
Продолжительность : 22 м.
Вид битрейта : Переменный
Битрейт : 5691 Кбит/сек
Максимальный битрейт : 7800 Кбит/сек
Ширина : 720 пикселей
Высота : 576 пикселей
Соотношение сторон : 16:9
Частота кадров : 25,000 кадров/сек
Стандарт вещания : PAL
Цветовое пространство : YUV
Субдискретизация насыщенности : 4:2:0
Битовая глубина : 8 бит
Тип развёртки : Прогрессивная
Порядок развёртки : Нижнее поле первое
Метод сжатия : С потерями
Бит/(Пиксели*Кадры) : 0.549
Размер потока : 930 Мбайт (91%)
Библиотека кодирования : (c) 1998-2011 Womble Multimedia, Inc. / MPEG Video Wizard DVD 5.0.1.100 (03/2011) / Dec 19 2011

Аудио
Идентификатор : 189 (0xBD)-128 (0x80)
Формат : AC-3
Формат/Информация : Audio Coding 3
Расширение режима : CM (complete main)
Параметр Endianness формата : Big
Режим смешивания : DVD-Video
Продолжительность : 22 м.
Вид битрейта : Постоянный
Битрейт : 448 Кбит/сек
Каналы : 5 каналов
Расположение каналов : Front: L C R, Side: L R
Частота : 48,0 КГц
Битовая глубина : 16 бит
Метод сжатия : С потерями
Размер потока : 73,2 Мбайт (7%)

Свернуть


Скриншоты
Скриншоты меню
Изображение
Изображение
Свернуть
Изображение
Изображение
Изображение
Изображение
Изображение
Изображение
Изображение
Изображение
Изображение
Изображение
Свернуть

Изображение
Не в сети
Профиль  
 Добавлено: 2012-09-12 07:19 (спустя 9 часов)
Аватара пользователя
Стаж: 8 лет
Сообщений: 1393
Спасибок: 39
Лайков: 64
Уя, рейт бешеный ;;-))) ;;-))) ;;-))) ;;-))) ;;-))) и судя по скринам формат экрана 4:4 :-D
Не в сети
Профиль  
 Добавлено: 2012-11-18 12:11 (спустя 2 месяца 6 дней)
Аватара пользователя
Стаж: 4 года 4 месяца
Возраст: 33
Сообщений: 178
Лайков: 3
;;-))) ;;-))) ;;-))) ;;-))) чоб смотреть такие породии, надо посмотреть оригиналы... :) вот тогда ;;-))) ;;-))) ;;-))) ;;-))) ;;-)))
Не в сети
Профиль  
 Добавлено: 2012-12-14 18:39 (спустя 26 дней)
Стаж: 6 лет
Сообщений: 2
Спасибок: 7
3D Это просто название, или фильм размазанный???
Не в сети
Профиль  
Начать новую темуОтветить на тему  [ Сообщений: 4 ] 
Вы не можете начинать темы
Вы не можете отвечать на сообщения
Вы не можете редактировать свои сообщения
Вы не можете удалять свои сообщения