Правила форума

  • В этом разделе создание новых тем Запрещено.
  • Для создания новых тем пользуйтесь Корневым разделом DVD и HD фильмы.
Начать новую темуОтветить на тему  [ Сообщений: 3 ] 
Торрент файл
Размер: 6.82 GB • Зарегистрирован: 5 лет 5 месяцев • Статус: Проверено
Скачан: 267 раз • Желающих скачать: 0 • Поблагодарили: 41 раз
 Раздают: 0  |  0 KB/s  ]   Качают: 0  |  0 KB/s  ] 
 Полного источника не было 2 года 1 месяц 
Сообщения
 Добавлено: 2011-06-20 23:15
Аватара пользователя
Стаж: 5 лет 5 месяцев
Возраст: 30
Сообщений: 353
Спасибок: 7455
Больше чем секс / No Strings Attached

Изображение


Год выпуска: 2011
Страна: США (Cold Spring Pictures, Handsomecharlie Films, Katalyst Films, Paramount Pictures, Spyglass Entertainment, The Montecito Picture Company)
Слоган: «Сможет ли бабник влюбиться в красотку?»
Жанр: мелодрама, комедия
Продолжительность: 01:47:58
Перевод: Профессиональный (дубляж)
Дублеры: Татьяна Шитова, Сергей Бурунов, Алексей Иващенко, Константин Карасик, Валентина Абрамова + Оригинальная звуковая дорожка + Профессиональный (дубляж)
Субтитры: Русские, Английские, украинские

Режиссёр: Айвен Райтман / Ivan Reitman
Сценарист: Элизабет Меривезер, Майкл Самонек
Продюсер: Айвен Райтман, Джеффри Клиффорд, Джо Медьяк
Оператор: Рохир Стофферс
Композитор: Джон Дебни

В ролях: Натали Портман, Эштон Катчер, Кевин Клайн, Кэри Элвис, Грета Гервиг, Лэйк Белл, Оливия Тирлби, Лудакрис, Джэйк М. Джонсон, Мелинда Калинг

Описание: Романтическая комедия о том, как легко мужчины и женщины вступают в сексуальную связь, но как трудно им достичь эмоциональной близости. Главных героев связывают только сексуальные отношения, но со временем они понимают, что на смену физиологическим инстинктам приходит нечто большее.
Рейтинг MPAA: Рейтинг R (Подростки до 17 лет допускаются на фильм только в сопровождении одного из родителей)
Мировая премьера: 11 января 2011
Премьера в России: 3 марта 2011, «Централ Партнершип»
Бюджет: $25 000 000
Кассовые сборы: + $77 134 179 = $147 796 399

Изображение Изображение Изображение

Качество: DVD9 R5
Формат: DVD Video
Видео кодек: MPEG2
Аудио кодек: AC3 (Dolby Digital)
Видео: PAL 16:9 (720x576(0.545)) MPEG Video,25,000 кадр/сек, 5652 Кбит/сек
Аудио #1: Russian (Dolby AC3, 6 ch) 448 Кбит/сек, 48,0 КГц [Профессиональный (дубляж)]
Аудио #2: English (Dolby AC3, 6 ch) 448 Кбит/сек, 48,0 КГц [Оригинальная звуковая дорожка]
Аудио #3: Ukrainian (Dolby AC3, 6 ch) 448 Кбит/сек, 48,0 КГц [Профессиональный (дубляж)]
Субтитры: Русские, Английские, украинские

"DVDInfo"
Title: Мой диск
Size: 6.82 Gb ( 7 147 478 KBytes ) - DVD-9
Enabled regions: 1, 2, 3, 4, 5, 6, 7, 8

VTS_01 :
Play Length:
Video: NTSC 16:9 (720x480) VBR, Auto Letterboxed

VTS_02 :
Play Length:
Video: NTSC 16:9 (720x480) VBR, Auto Letterboxed

VTS_03 :
Play Length: 00:19:55
Video: PAL 16:9 (720x576) VBR, Auto Letterboxed
Audio:
English (Dolby AC3, 2 ch)
Subtitles:
English
Russian
Ukrainian

VTS_04 :
Play Length:
Video: PAL 16:9 (720x576) VBR, Auto Pan&Scan
Audio:
Not specified (Dolby AC3, 2 ch)
Subtitles:
Not specified

VTS_05 :
Play Length: 00:00:25
Video: PAL 16:9 (720x576) VBR, Auto Pan&Scan
Audio:
Not specified (Dolby AC3, 2 ch)

VTS_06 :
Play Length: 00:00:05
Video: PAL 16:9 (720x576) VBR, Auto Pan&Scan
Audio:
Not specified (Dolby AC3, 2 ch)

VTS_07 :
Play Length:
Video: NTSC 16:9 (720x480) VBR, Auto Letterboxed

VTS_08 :
Play Length:
Video: NTSC 16:9 (720x480) VBR, Auto Letterboxed

VTS_09 :
Play Length:
Video: NTSC 16:9 (720x480) VBR, Auto Letterboxed

VTS_10 :
Play Length: 00:00:15
Video: PAL 16:9 (720x576) VBR, Auto Pan&Scan
Audio:
Not specified (Dolby AC3, 2 ch)

VTS_11 :
Play Length:
Video: NTSC 16:9 (720x480) VBR, Auto Letterboxed

VTS_12 :
Play Length:
Video: NTSC 16:9 (720x480) VBR, Auto Letterboxed

VTS_13 :
Play Length:
Video: NTSC 16:9 (720x480) VBR, Auto Letterboxed

VTS_14 :
Play Length:
Video: NTSC 16:9 (720x480) VBR, Auto Letterboxed

VTS_15 :
Play Length:
Video: NTSC 16:9 (720x480) VBR, Auto Letterboxed

VTS_16 :
Play Length:
Video: NTSC 16:9 (720x480) VBR, Auto Letterboxed

VTS_17 :
Play Length:
Video: NTSC 16:9 (720x480) VBR, Auto Letterboxed

VTS_18 :
Play Length:
Video: NTSC 16:9 (720x480) VBR, Auto Letterboxed

VTS_19 :
Play Length:
Video: NTSC 16:9 (720x480) VBR, Auto Letterboxed

VTS_20 :
Play Length: 01:43:34
Video: PAL 16:9 (720x576) VBR, Auto Letterboxed
Audio:
English (Dolby AC3, 6 ch)
Russian (Dolby AC3, 6 ch)
Ukrainian (Dolby AC3, 6 ch)
English (Dolby AC3, 2 ch)
Subtitles:
English
Russian
Ukrainian
English
Russian
Ukrainian

VTS_21 :
Play Length:
Video: NTSC 16:9 (720x480) VBR, Auto Letterboxed

VTS_22 :
Play Length:
Video: NTSC 16:9 (720x480) VBR, Auto Letterboxed

VTS_23 :
Play Length: 00:10:55
Video: PAL 16:9 (720x576) VBR, Auto Letterboxed
Audio:
English (Dolby AC3, 2 ch)
Subtitles:
English
Russian
Ukrainian

VTS_24 :
Play Length:
Video: NTSC 16:9 (720x480) VBR, Auto Letterboxed

VTS_25 :
Play Length:
Video: NTSC 16:9 (720x480) VBR, Auto Letterboxed

VTS_26 :
Play Length: 00:03:36+00:01:33+00:02:02
Video: PAL 16:9 (720x576) VBR, Auto Letterboxed
Audio:
English (Dolby AC3, 2 ch)
Subtitles:
English
Russian
Ukrainian

VTS_27 :
Play Length:
Video: NTSC 16:9 (720x480) VBR, Auto Letterboxed

VTS_28 :
Play Length: 00:06:44+00:00:59+00:02:05+00:01:49+00:01:51
Video: PAL 16:9 (720x576) VBR, Auto Letterboxed
Audio:
English (Dolby AC3, 2 ch)
Subtitles:
English
Russian
Ukrainian

VTS_29 :
Play Length:
Video: NTSC 16:9 (720x480) VBR, Auto Letterboxed

VTS_30 :
Play Length:
Video: NTSC 16:9 (720x480) VBR, Auto Letterboxed

VTS_31 :
Play Length:
Video: NTSC 16:9 (720x480) VBR, Auto Letterboxed

VTS_32 :
Play Length:
Video: PAL 4:3 (720x576) VBR

Свернуть

"MediaInfo"
Общее
Полное имя : F:\Новинки 2011\Bolshe.chem.sex.2011.DVD9\VIDEO_TS\VTS_20_1.VOB
Формат : MPEG-PS
Размер файла : 1024 Мбайт
Продолжительность : 19 м.
Общий поток : 7334 Кбит/сек

Видео
Идентификатор : 224 (0xE0)
Формат : MPEG Video
Версия формата : Version 2
Профиль формата : Main@Main
Параметр BVOP формата : Да
Параметр матрицы формата : Выборочная
Продолжительность : 19 м.
Вид битрейта : Переменный
Битрейт : 5652 Кбит/сек
Ширина : 720 пикс.
Высота : 576 пикс.
Соотношение сторон : 16:9
Частота кадров : 25,000 кадр/сек
Стандарт вещания : PAL
Цветовое пространство : YUV
Подвыборка цветности : 4:2:0
Битовая глубина : 8 бит
Тип развёртки : Прогрессивная
Порядок развёртки : Верхнее поле первое
Метод сжатия : С потерями
Бит/(Пиксели*Кадры) : 0.545
Размер потока : 789 Мбайт (77%)

Аудио #1
Идентификатор : 189 (0xBD)-128 (0x80)
Формат : AC-3
Формат/Информация : Audio Coding 3
Расширение режима : CM (complete main)
Режим смешивания : DVD-Video
Продолжительность : 19 м.
Вид битрейта : Постоянный
Битрейт : 448 Кбит/сек
Каналы : 6 каналов
Расположение каналов : Front: L C R, Side: L R, LFE
Частота : 48,0 КГц
Битовая глубина : 16 бит
Метод сжатия : С потерями
Размер потока : 62,5 Мбайт (6%)

Аудио #2
Идентификатор : 189 (0xBD)-129 (0x81)
Формат : AC-3
Формат/Информация : Audio Coding 3
Расширение режима : CM (complete main)
Режим смешивания : DVD-Video
Продолжительность : 19 м.
Вид битрейта : Постоянный
Битрейт : 448 Кбит/сек
Каналы : 6 каналов
Расположение каналов : Front: L C R, Side: L R, LFE
Частота : 48,0 КГц
Битовая глубина : 16 бит
Метод сжатия : С потерями
Размер потока : 62,5 Мбайт (6%)

Аудио #3
Идентификатор : 189 (0xBD)-130 (0x82)
Формат : AC-3
Формат/Информация : Audio Coding 3
Расширение режима : CM (complete main)
Режим смешивания : DVD-Video
Продолжительность : 19 м.
Вид битрейта : Постоянный
Битрейт : 448 Кбит/сек
Каналы : 6 каналов
Расположение каналов : Front: L C R, Side: L R, LFE
Частота : 48,0 КГц
Битовая глубина : 16 бит
Метод сжатия : С потерями
Размер потока : 62,5 Мбайт (6%)

Аудио #4
Идентификатор : 189 (0xBD)-131 (0x83)
Формат : AC-3
Формат/Информация : Audio Coding 3
Расширение режима : CM (complete main)
Режим смешивания : DVD-Video
Продолжительность : 19 м.
Вид битрейта : Постоянный
Битрейт : 192 Кбит/сек
Каналы : 2 канала
Расположение каналов : Front: L R
Частота : 48,0 КГц
Битовая глубина : 16 бит
Метод сжатия : С потерями
Размер потока : 26,8 Мбайт (3%)

Свернуть

Скриншоты
Скриншоты меню
Изображение
Изображение
Изображение
Изображение
Изображение
Изображение
Свернуть
Изображение
Изображение
Изображение
Изображение
Изображение
Изображение
Изображение
Изображение
Свернуть


Изображение Изображение
Не в сети
Профиль  
 Добавлено: 2011-06-29 19:50 (спустя 8 дней)
Аватара пользователя
Стаж: 7 лет 3 месяца
Возраст: 34
Сообщений: 127
По началу я думал муть какаето!!
Но потом был в восторге класная комедия и мелодрамма советую всем посмотреть!!!!
посижу на раздаче!!!

спасибо автору!!
Не в сети
Профиль  
 Добавлено: 2011-07-10 13:45 (спустя 10 дней)
Аватара пользователя
Стаж: 8 лет
Сообщений: 836
Спасибо!!!
Люблю такие фильмы!
Не в сети
Профиль  
Начать новую темуОтветить на тему  [ Сообщений: 3 ] 
Вы не можете начинать темы
Вы не можете отвечать на сообщения
Вы не можете редактировать свои сообщения
Вы не можете удалять свои сообщения