Правила форума

  • В этом разделе создание новых тем Запрещено.
  • Для создания новых тем пользуйтесь Корневым разделом DVD и HD фильмы.
Начать новую темуОтветить на тему  [ Сообщений: 4 ] 
Торрент файл
Размер: 4.36 GB • Зарегистрирован: 4 года 7 месяцев • Статус: Проверено
Скачан: 71 раз • Желающих скачать: 0 • Поблагодарили: 15 раз
 Раздают: 0  |  0 KB/s  ]   Качают: 0  |  0 KB/s  ] 
 Полного источника не было 3 года 2 месяца 
Сообщения
 Добавлено: 2012-04-05 05:21
Руководитель релиз-группы
Аватара пользователя
Стаж: 7 лет 4 месяца
Возраст: 31
Сообщений: 3407
Спасибок: 46728
Лайков: 5
Изображение

Бомж с дробовиком
Hobo with a Shotgun


Год выпуска: 2011
Страна: Канада
Слоган: «Delivering justice, one shell at a time...»
Жанр: боевик, триллер, криминал
Продолжительность: 01:22:29
Перевод: Профессиональный (многоголосый, закадровый)
Режиссер: Джейсон Айзенер
Сценарий: Джон Дейвис, Джейсон Айзенер, Роб Коттерилл
Продюсер: Роб Коттерилл, Нив Фичман, Пол Гросс
Оператор: Карим Хуссэйн
Композитор: Адам Бурк, Дариус Холберт, Русс Ховард III
В ролях: Рутгер Хауэр, Грегори Смит, Робб Уэллс, Молли Дансуорт, Ник Бейтман, Брайан Дауни, Джереми Акерман, Дэвид Брант, Майкл Фокс, Паша Эбрахими и др.
Бюджет: $3 000 000
Описание: В центре событий бомж, которому надоело наблюдать беспредел творящийся на улицах. В один прекрасный момент чаша его терпения переполняется, он хватает с витрины магазина дробовик и идет наводить справедливость, отстреливая бандитов, коррумпированных копов, педофилов и прочих уродов.
Изображение
Релиз: Изображение Раздача группы: Изображение
Качество: DVD5 (сжатый)
Формат: DVD Video
Видео: MPEG2; PAL 16:9 (720x576)
Аудио #1: Dolby AC3, 6 ch, 384 Kbps Russian
Аудио #2: Dolby AC3, 6 ch, 384 Kbps English
Субтитры: русские
Дополнительная информация :
Исходник : DVD9 (5.75 Гб) [лицензия, PAL 16:9]
Убрано : реклама, заставки, предупреждения, Russian (Dolby AC3, 2 ch)
Сжатие фильма : 24 % сжатия (без учета ручного перераспределения битрейта, за счет большего сжатия конечных титров)
использовались программы
    DVDRemakePro
    Photoshop
    MuxMan
    Rebuilder и CCE (Cinema Craft Encoder), 5 проходов
    Работоспособность проверена на софтовом плеере Windows Media и бытовом LG
Свернуть
DVDInfo
    Title: Bomzh.s.drobovikom_2011_DVD5.[R.G.Daredevil]
    Size: 4.36 Gb ( 4 576 692,00 KBytes ) - DVD-5
    Enabled regions: 1, 2, 3, 4, 5, 6, 7, 8

    VTS_01 :
    Play Length: 00:00:00+01:22:29+{00:00:00}
    Video: PAL 16:9 (720x576) VBR, Auto Letterboxed
    Audio:
    Russian (Dolby AC3, 6 ch)
    Russian (Dolby AC3, 2 ch)
    English (Dolby AC3, 6 ch)
    Subtitles:
    Russian

    VTS_02 :
    Play Length: 00:00:00+00:00:00+00:00:00
    Video: PAL 16:9 (720x576) VBR, Auto Letterboxed
    Audio:
    Russian (Dolby AC3, 6 ch)

    VTS_03 :
    Play Length: 00:00:00+00:00:01+{00:00:00}
    Video: PAL 16:9 (720x576) VBR, Auto Letterboxed
    Audio:
    Russian (Dolby AC3, 2 ch)
Свернуть
mediainfo
    Формат : MPEG-PS
    Размер файла : 1024 Мбайт
    Продолжительность : 18 м.
    Режим общего битрейта : Переменный
    Общий поток : 7793 Кбит/сек
    Библиотека кодирования : encoded by TMPGEnc (ver. 2.524.63.181)

    Видео
    Идентификатор : 224 (0xE0)
    Формат : MPEG Video
    Версия формата : Version 2
    Профиль формата : Main@Main
    Параметр BVOP формата : Да
    Параметр матрицы формата : Выборочная
    Продолжительность : 18 м.
    Вид битрейта : Переменный
    Битрейт : 6870 Кбит/сек
    Ширина : 720 пикселей
    Высота : 576 пикселей
    Соотношение сторон : 16:9
    Частота кадров : 25,000 кадров/сек
    Стандарт вещания : PAL
    Цветовое пространство : YUV
    Субдискретизация насыщенности : 4:2:0
    Битовая глубина : 8 бит
    Метод сжатия : С потерями
    Бит/(Пиксели*Кадры) : 0.663
    Размер потока : 903 Мбайт (88%)
    Библиотека кодирования : TMPGEnc 2.524.63.181

    Аудио #1
    Идентификатор : 189 (0xBD)-128 (0x80)
    Формат : AC-3
    Формат/Информация : Audio Coding 3
    Расширение режима : CM (complete main)
    Режим смешивания : DVD-Video
    Продолжительность : 18 м.
    Вид битрейта : Постоянный
    Битрейт : 384 Кбит/сек
    Каналы : 6 каналов
    Расположение каналов : Front: L C R, Side: L R, LFE
    Частота : 48,0 КГц
    Битовая глубина : 16 бит
    Метод сжатия : С потерями
    Задержка видео : 6 мс.
    Размер потока : 50,4 Мбайт (5%)

    Аудио #2
    Идентификатор : 189 (0xBD)-130 (0x82)
    Формат : AC-3
    Формат/Информация : Audio Coding 3
    Расширение режима : CM (complete main)
    Режим смешивания : DVD-Video
    Продолжительность : 18 м.
    Вид битрейта : Постоянный
    Битрейт : 384 Кбит/сек
    Каналы : 6 каналов
    Расположение каналов : Front: L C R, Side: L R, LFE
    Частота : 48,0 КГц
    Битовая глубина : 16 бит
    Метод сжатия : С потерями
    Задержка видео : 6 мс.
    Размер потока : 50,4 Мбайт (5%)

    Текст
    Идентификатор : 189 (0xBD)-32 (0x20)
    Формат : RLE
    Формат/Информация : Run-length encoding
    Режим смешивания : DVD-Video

    Меню
Свернуть
Знаете ли Вы, что...
  • В сцене, где бомж начинает вершить правосудие, звучит музыка Мишеля Коломбье из популярного в советском прокате фильма «Частный детектив» («L'alpagueur», 1976) с Жаном-Полем Бельмондо.
  • Строго говоря, слово «Hobo» не совсем синонимично слову «бомж». Термин появился на Западе США в конце XIX века и обозначал странствующих рабочих. Число хобо значительно возросло с наступлением Великой Депрессии, людям приходилось искать работу вдали от дома. Со временем хобо образовали свою субкультуру, включающую специальные жаргонизмы, систему опознавательных знаков, и т.д. Среди людей, которым приходилось быть хобо, были Джек Лондон, Луис Ламур, Джордж Оруэлл.
Свернуть
Скриншоты

меню
Изображение
Изображение
Изображение
Свернуть
Изображение
Изображение
Изображение
Изображение
Свернуть
Не в сети
Профиль  
 Добавлено: 2012-04-05 21:43 (спустя 16 часов)
Аватара пользователя
Стаж: 8 лет 11 месяцев
Возраст: 55
Сообщений: 14343
Спасибок: 181
Лайков: 1182
Как низко пал Рутгер Хауэр. :(
Чушь несусветная. Пожалел время, потраченное на просмотр.
_________________
Изображение
Блин...
Изображение
Не в сети
Профиль  
 Добавлено: 2012-04-17 20:49 (спустя 11 дней)
Стаж: 4 года 9 месяцев
Сообщений: 17

Nike555:

Как низко пал Рутгер Хауэр. :(
Чушь несусветная. Пожалел время, потраченное на просмотр.
в зеркало посмотрись придурок малолетний!! Сколько ты его фильмов видел?
Не в сети
Профиль  
 Добавлено: 2012-04-22 19:08 (спустя 4 дня)
Аватара пользователя
Стаж: 8 лет 11 месяцев
Возраст: 55
Сообщений: 14343
Спасибок: 181
Лайков: 1182

ПупсегЯ:

Nike555:

Как низко пал Рутгер Хауэр. :(
Чушь несусветная. Пожалел время, потраченное на просмотр.
в зеркало посмотрись придурок малолетний!! Сколько ты его фильмов видел?
Слышь Тортилла, я почти все его фильмы смотрел. Являюсь почитателем этого актера. И могу сравнивать.
И если говорю, что фильм не айс - значит не айс.
Кстати от МАЛОЛЕТКИ и слышу. Школота достала уже. :ti_pa:
_________________
Изображение
Блин...
Изображение
Не в сети
Профиль  
Начать новую темуОтветить на тему  [ Сообщений: 4 ] 
Вы не можете начинать темы
Вы не можете отвечать на сообщения
Вы не можете редактировать свои сообщения
Вы не можете удалять свои сообщения