Правила форума

  • В этом разделе создание новых тем Запрещено.
  • Для создания новых тем пользуйтесь Корневым разделом DVD и HD фильмы.
Начать новую темуОтветить на тему  [ Сообщений: 4 ] 
Торрент файл
Размер: 3.63 GB • Зарегистрирован: 3 года 10 месяцев • Статус: Проверено
Скачан: 117 раз • Желающих скачать: 0 • Поблагодарили: 30 раз
 Раздают: 0  |  0 KB/s  ]   Качают: 0  |  0 KB/s  ] 
 Полного источника не было 1 год 3 месяца 
Сообщения
 Добавлено: 2013-01-19 02:19
Руководитель релиз-группы
Аватара пользователя
Стаж: 7 лет 5 месяцев
Возраст: 31
Сообщений: 3406
Спасибок: 46729
Лайков: 5
Изображение

Бункер
La cara oculta


Год выпуска: 2011
Страна: Колумбия, Испания
Слоган: «Тебе никогда не откроют дверь»
Жанр: триллер
Продолжительность: 01:32:01
Перевод: Профессиональный (многоголосый, закадровый)
Режиссер: Андрес Баиз
Сценарий: Хатем Храиче, Андрес Баиз, Артуро Инфанте
Продюсер: Андрес Калдерон, Андрес Калдерон, Кристиан Конти, Джулиана Флорез, Родриго Герерро
Оператор: Джозеп М. Сивит
Композитор: Федерико Хусид
В ролях: Клара Лаго, Ким Гутьеррес, Мартина Гарсия, Хуан Альфонсо Баптиста, Марсела Бенхумеа, Марсела Мар Умберто Дорадо, Хосе Луис Гарсиа, Марсела Гардеазабаль, Мозад, Мария Соледад Родригез, Александра Стюарт
Описание: Официантка Фабиана знакомится с одним из случайных посетителей, переживающим сложный период в жизни. Между ними вспыхивает страсть. Для девушки все кажется идеальным: ее любимый работает дирижером оркестра филармонии в Боготе и владеет огромным особняком. Однако вскоре появляются непредвиденные сложности. Полиция расследует таинственное исчезновения бывшей невесты и подруги дирижера, а сама девушка начинает чувствовать, что в доме происходит нечто странное.
Изображение
Релиз: Изображение Раздача группы: Изображение
Качество: DVD5
Формат: DVD Video
Видео: MPEG2; PAL 16:9 (720x576)
Аудио: Dolby AC3, 6 ch, 448 Kbps Russian
Субтитры: нет
Дополнительно: нет
DVDInfo
    Title: Bunker.2011.DVD5
    Size: 3.63 Gb ( 3 809 438,00 KBytes ) - DVD-5
    Enabled regions: 1, 2, 3, 4, 5, 6, 7, 8

    VTS_01 :
    Play Length: 01:32:01
    Video: PAL 16:9 (720x576) VBR, Auto Letterboxed
    Audio:
    Russian (Dolby AC3, 6 ch)

    VTS_02 :
    Play Length: 00:00:08
    Video: PAL 4:3 (720x576) VBR

    VTS_03 :
    Play Length: 00:00:30
    Video: PAL 4:3 (720x576) VBR
    Audio:
    English (Dolby AC3, 2 ch)

    VTS_04 :
    Play Length: 00:00:10
    Video: PAL 16:9 (720x576) VBR, Auto Letterboxed
    Audio:
    English (Dolby AC3, 2 ch)

    VTS_05 :
    Play Length: 00:00:21
    Video: PAL 16:9 (720x576) VBR, Auto Letterboxed
    Audio:
    English (Dolby AC3, 2 ch)

    VTS_06 :
    Play Length: 00:00:30
    Video: PAL 16:9 (720x576) VBR, Auto Letterboxed
    Audio:
    English (Dolby AC3, 2 ch)
Свернуть
mediainfo
    Формат : MPEG-PS
    Размер файла : 1024 Мбайт
    Продолжительность : 25 м.
    Режим общего битрейта : Переменный
    Общий поток : 5675 Кбит/сек

    Видео
    Идентификатор : 224 (0xE0)
    Формат : MPEG Video
    Версия формата : Version 2
    Профиль формата : Main@Main
    Параметр BVOP формата : Да
    Параметр матрицы формата : Выборочная
    Продолжительность : 25 м.
    Вид битрейта : Переменный
    Битрейт : 5114 Кбит/сек
    Максимальный битрейт : 8000 Кбит/сек
    Ширина : 720 пикселей
    Высота : 576 пикселей
    Соотношение сторон : 16:9
    Частота кадров : 25,000 кадров/сек
    Стандарт вещания : PAL
    Цветовое пространство : YUV
    Субдискретизация насыщенности : 4:2:0
    Битовая глубина : 8 бит
    Тип развёртки : Чересстрочная
    Порядок развёртки : Верхнее поле первое
    Метод сжатия : С потерями
    Бит/(Пиксели*Кадры) : 0.493
    Размер потока : 923 Мбайт (90%)

    Аудио
    Идентификатор : 189 (0xBD)-128 (0x80)
    Формат : AC-3
    Формат/Информация : Audio Coding 3
    Расширение режима : CM (complete main)
    Режим смешивания : DVD-Video
    Продолжительность : 25 м.
    Вид битрейта : Постоянный
    Битрейт : 448 Кбит/сек
    Каналы : 6 каналов
    Расположение каналов : Front: L C R, Side: L R, LFE
    Частота : 48,0 КГц
    Битовая глубина : 16 бит
    Метод сжатия : С потерями
    Размер потока : 80,8 Мбайт (8%)

    Меню
Свернуть
Скриншоты

меню
Изображение

Изображение
Свернуть
Изображение

Изображение

Изображение

Изображение
Свернуть
Не в сети
Профиль  
 Добавлено: 2013-01-19 07:48 (спустя 5 часов)
Модератор релиз-группы
Аватара пользователя
Стаж: 6 лет 5 месяцев
Возраст: 25
Сообщений: 622
Спасибок: 10258
Лайков: 7
Спасибо, забираю! :)
_________________
Изображение
Не в сети
Профиль  
 Добавлено: 2013-01-21 18:24 (спустя 2 дня 10 часов)
Кинокомментатор
Аватара пользователя
Стаж: 9 лет 1 месяц
Сообщений: 1332
Лайков: 54
кино явно стоящее! не линейно, хотя понятно, но смотрится очень таки интересно!
смотреть? конечно! сейчас кино на вес золота) и эта картина не должна пройти не замеченной;)
но в ней есть очень важные штуки!) 1) девушки! ну думайте уже головой! а то сначала сделали, потом подумали... ну как в жизни) 2) девушки! не будьте так злы и убавьте свои собственнеческие замашки:) 3) как говорится - мужчину после разрыва надо хватать тёпленьким) всё логично! и что за проверки!?))) что она хотела увидеть!? сказав такое%)

фильму 8/10 за интерес;)
_________________
Я ВКонтакте
Не в сети
Профиль  
 Добавлено: 2013-02-07 19:47 (спустя 17 дней)
Аватара пользователя
Стаж: 9 лет
Сообщений: 48
Посмотрев кино кратко могу охарактеризовать (да не обидятся на меня милые дамы): о женской глупости, о женском коварстве или чем-то подобном, и о женской мести.
Не в сети
Профиль  
Начать новую темуОтветить на тему  [ Сообщений: 4 ] 
Вы не можете начинать темы
Вы не можете отвечать на сообщения
Вы не можете редактировать свои сообщения
Вы не можете удалять свои сообщения