Правила форума

  • В этом разделе создание новых тем Запрещено.
  • Для создания новых тем пользуйтесь Корневым разделом DVD и HD фильмы.
Начать новую темуОтветить на тему  [ Сообщений: 4 ] 
Торрент файл
Размер: 4.37 GB • Зарегистрирован: 5 лет • Статус: Проверено
Скачан: 159 раз • Желающих скачать: 0 • Поблагодарили: 33 раза
 Раздают: 0  |  0 KB/s  ]   Качают: 0  |  0 KB/s  ] 
 Полного источника не было 3 года 3 месяца 
Сообщения
 Добавлено: 2011-11-29 10:52
Руководитель релиз-группы
Аватара пользователя
Стаж: 7 лет 5 месяцев
Возраст: 31
Сообщений: 3406
Спасибок: 46729
Лайков: 5
Изображение

Бунраку
Bunraku


Год выпуска: 2010
Страна: США
Слоган: «A civilized weapon for uncivilized times»
Жанр: боевик, триллер, драма
Продолжительность: 01:59:18
Перевод: Профессиональный (многоголосый, закадровый)
Режиссер: Гай Моше
Сценарий: Гай Моше, Боаз Дэвидсон
Продюсер: Рэм Бергман, Кейт Калдер, Нава Левин
Оператор: Хуан Руис Анчия
Композитор: Теренс Блэнчард
В ролях: Джош Хартнетт, Вуди Харрельсон, Гакт Камуи, Рон Перлман, Деми Мур, Кевин МакКидд, Сюн Сугата, Жорди Молья, Эмили Кайхо, Майк Паттон
Бюджет: $25 000 000
Описание: Таинственный скиталец и молодой японский воин прибывают в терроризируемый преступниками город. У каждого своя миссия, но вскоре они объединяют силы, чтобы свергнуть коррумпированное господство.
Изображение
MPAA: Изображение
Релиз: Изображение Раздача группы: Изображение
Качество: DVD5 (сжатый)
Формат: DVD Video
Видео: MPEG2; PAL 16:9 (720x576)
Аудио #1: Dolby AC3, 6 ch, 448 Kbps Russian
Аудио #2: Dolby AC3, 6 ch, 448 Kbps English
Субтитры: украинские
Дополнительная информация :
Исходник : DVD9 (7.36 Гб) [лицензия, PAL 16:9]
Убрано : допы, реклама, заставки, предупреждения
Сжатие фильма : 37.8 % сжатия (без учета ручного перераспределения битрейта, за счет большего сжатия конечных титров)
использовались программы
    DVDRemakePro
    Photoshop
    MuxMan
    Rebuilder и CCE (Cinema Craft Encoder), 5 проходов
    Работоспособность проверена на софтовом плеере Windows Media и бытовом LG
Свернуть
DVDInfo
    Title: Bunraku_2010_DVD5.[R.G.Daredevil]
    Size: 4.37 Gb ( 4 581 320,00 KBytes ) - DVD-5
    Enabled regions: 1, 2, 3, 4, 5, 6, 7, 8

    VTS_01 :
    Play Length: 00:00:00
    Video: PAL 16:9 (720x576) VBR, Auto Letterboxed
    Audio:
    Not specified (Dolby AC3, 2 ch)

    VTS_02 :
    Play Length: 00:00:00
    Video: PAL 16:9 (720x576) VBR, Auto Letterboxed

    VTS_03 :
    Play Length: 00:00:00
    Video: PAL 16:9 (720x576) VBR, Auto Letterboxed
    Audio:
    Not specified (Dolby AC3, 2 ch)
    Not specified (Dolby AC3, 2 ch)
    Not specified (Dolby AC3, 2 ch)

    VTS_04 :
    Play Length: 01:59:18
    Video: PAL 16:9 (720x576) VBR, Auto Letterboxed
    Audio:
    Russian (Dolby AC3, 6 ch)
    English (Dolby AC3, 6 ch)
    Subtitles:
    Ukrainian

    VTS_05 :
    Play Length: 00:00:00
    Video: PAL 16:9 (720x576) VBR, Auto Letterboxed
    Audio:
    Not specified (Dolby AC3, 2 ch)

    VTS_06 :
    Play Length: 00:00:00
    Video: PAL 16:9 (720x576) VBR, Auto Letterboxed
    Audio:
    Not specified (Dolby AC3, 2 ch)

    VTS_07 :
    Play Length: 00:00:00
    Video: PAL 16:9 (720x576) VBR, Auto Letterboxed
    Audio:
    Not specified (Dolby AC3, 2 ch)

    VTS_08 :
    Play Length: 00:00:00
    Video: PAL 16:9 (720x576) VBR, Auto Letterboxed
    Audio:
    Not specified (Dolby AC3, 2 ch)

    VTS_09 :
    Play Length: 00:00:00
    Video: PAL 16:9 (720x576) VBR, Auto Letterboxed
    Audio:
    Not specified (Dolby AC3, 2 ch)

    VTS_10 :
    Play Length: 00:00:00
    Video: PAL 16:9 (720x576) VBR, Auto Letterboxed
    Audio:
    Not specified (Dolby AC3, 2 ch)

    VTS_11 :
    Play Length: 00:00:00
    Video: PAL 16:9 (720x576) VBR, Auto Letterboxed
    Audio:
    Not specified (Dolby AC3, 2 ch)

    VTS_12 :
    Play Length: 00:00:00
    Video: PAL 16:9 (720x576) VBR, Auto Letterboxed
    Audio:
    Not specified (Dolby AC3, 2 ch)

    VTS_13 :
    Play Length: 00:00:00
    Video: PAL 16:9 (720x576) VBR, Auto Letterboxed
    Audio:
    Not specified (Dolby AC3, 2 ch)

    VTS_14 :
    Play Length: 00:00:00
    Video: PAL 16:9 (720x576) VBR, Auto Letterboxed
    Audio:
    Not specified (Dolby AC3, 2 ch)
Свернуть
mediainfo
    Формат : MPEG-PS
    Размер файла : 1024 Мбайт
    Продолжительность : 26 м.
    Режим общего битрейта : Переменный
    Общий поток : 5425 Кбит/сек

    Видео
    Идентификатор : 224 (0xE0)
    Формат : MPEG Video
    Версия формата : Version 2
    Профиль формата : Main@Main
    Параметр BVOP формата : Да
    Параметр матрицы формата : Выборочная
    Продолжительность : 26 м.
    Вид битрейта : Переменный
    Битрейт : 4421 Кбит/сек
    Максимальный битрейт : 8904 Кбит/сек
    Ширина : 720 пикселей
    Высота : 576 пикселей
    Соотношение сторон : 16:9
    Частота кадров : 25,000 кадров/сек
    Стандарт вещания : PAL
    Цветовое пространство : YUV
    Субдискретизация насыщенности : 4:2:0
    Битовая глубина : 8 бит
    Тип развёртки : Прогрессивная
    Порядок развёртки : Нижнее поле первое
    Метод сжатия : С потерями
    Бит/(Пиксели*Кадры) : 0.426
    Размер потока : 834 Мбайт (81%)

    Аудио #1
    Идентификатор : 189 (0xBD)-128 (0x80)
    Формат : AC-3
    Формат/Информация : Audio Coding 3
    Расширение режима : CM (complete main)
    Режим смешивания : DVD-Video
    Продолжительность : 26 м.
    Вид битрейта : Постоянный
    Битрейт : 448 Кбит/сек
    Каналы : 6 каналов
    Расположение каналов : Front: L C R, Side: L R, LFE
    Частота : 48,0 КГц
    Битовая глубина : 16 бит
    Метод сжатия : С потерями
    Размер потока : 84,6 Мбайт (8%)

    Аудио #2
    Идентификатор : 189 (0xBD)-129 (0x81)
    Формат : AC-3
    Формат/Информация : Audio Coding 3
    Расширение режима : CM (complete main)
    Режим смешивания : DVD-Video
    Продолжительность : 26 м.
    Вид битрейта : Постоянный
    Битрейт : 448 Кбит/сек
    Каналы : 6 каналов
    Расположение каналов : Front: L C R, Side: L R, LFE
    Частота : 48,0 КГц
    Битовая глубина : 16 бит
    Метод сжатия : С потерями
    Размер потока : 84,6 Мбайт (8%)

    Текст
    Идентификатор : 189 (0xBD)-32 (0x20)
    Формат : RLE
    Формат/Информация : Run-length encoding
    Режим смешивания : DVD-Video
    Задержка видео : 17 с.

    Меню
Свернуть
Знаете ли Вы, что...
  • Фильм был снят за 12 недель на MediaPro Studios в Румынии.
  • Bunraku - японский крупномасштабный марионеточный театр.
Свернуть
Скриншоты

меню
Изображение
Изображение
Изображение
Свернуть
Изображение
Изображение
Изображение
Изображение
Свернуть
Не в сети
Профиль  
 Добавлено: 2011-12-01 19:31 (спустя 2 дня 8 часов)
Аватара пользователя
Стаж: 7 лет 1 месяц
Возраст: 28
Сообщений: 161
Спасибок: 95
У кого-нибудь есть саундтреки из этого фильма?
Не в сети
Профиль  
 Добавлено: 2011-12-04 04:31 (спустя 2 дня 9 часов)
Аватара пользователя
Стаж: 5 лет 9 месяцев
Возраст: 31
Сообщений: 21
Спасибок: 2
askboy
СПАСИБО!!! :men:
Не в сети
Профиль  
 Добавлено: 2012-07-24 01:47 (спустя 7 месяцев)
Аватара пользователя
Стаж: 6 лет 11 месяцев
Сообщений: 24
Давно не испытывал такого удовольствия от просмотра,автору релиза респект а режиссеру уважуха!!!=))
Не в сети
Профиль  
Начать новую темуОтветить на тему  [ Сообщений: 4 ] 
Вы не можете начинать темы
Вы не можете отвечать на сообщения
Вы не можете редактировать свои сообщения
Вы не можете удалять свои сообщения