Правила форума

  • В этом разделе создание новых тем Запрещено.
  • Для создания новых тем пользуйтесь Корневым разделом DVD и HD фильмы.
Начать новую темуОтветить на тему  [ Сообщений: 2 ] 
Торрент файл
Размер: 4.33 GB • Зарегистрирован: 5 лет 1 месяц • Статус: Проверено
Скачан: 168 раз • Желающих скачать: 0 • Поблагодарили: 23 раза
 Раздают: 0  |  0 KB/s  ]   Качают: 0  |  0 KB/s  ] 
 Полного источника не было 3 года 2 месяца 
Сообщения
 Добавлено: 2011-10-11 20:06
Руководитель релиз-группы
Аватара пользователя
Стаж: 7 лет 5 месяцев
Возраст: 31
Сообщений: 3406
Спасибок: 46729
Лайков: 5
Изображение

Бунт ушастых
Hop


Год выпуска: 2011
Страна: США
Слоган: «Конфетки, цыпочки и рок-н-ролл»
Жанр: мультфильм, фэнтези, комедия, семейный
Продолжительность: 01:31:08
Перевод: Профессиональный (полное дублирование)
Режиссер: Тим Хилл
Сценарий: Синко Пол, Кен Даурио, Брайан Линч
Продюсер: Кристофер Меледандри, Джон Коэн, Венди Джиари
Оператор: Питер Лайонс Коллистер
Композитор: Кристофер Леннерц
В ролях: Джеймс Марсден, Расселл Брэнд, Кейли Куоко, Хэнк Азария, Гэри Коул, Элизабет Перкинс, Хью Лори, Тиффани Эспенсен, Дэвид Хэсселхофф, Челси Хэндлер
Бюджет: $63 000 000
Сборы в мире: $183 822 562
Описание: Анимационная комедия про кролика Хэппи, который не хотел продолжать семейное дело и разносить детям подарки перед Пасхой, а хотел стать барабанщиком и играть рок-н-ролл.
А в это время злобный цыпленок строит планы по захвату власти на острове Пасхи.
Изображение
MPAA: Изображение
Релиз: Изображение Раздача группы: Изображение
Качество: DVD5 (сжатый)
Формат: DVD Video
Видео: MPEG2; PAL 16:9 (720x576)
Аудио #1: Dolby AC3, 6 ch, 384 Kbps Russian
Аудио #2: Dolby AC3, 6 ch, 384 Kbps English
Субтитры: английские, украинские
Дополнительная информация :
Исходник : DVD9 (5.77 Гб) [лицензия, PAL 16:9]
Убрано : допы, реклама, заставки, Ukrainian (Dolby AC3, 6 ch)
Сжатие фильма : 8.7 % сжатия (без учета ручного перераспределения битрейта, за счет большего сжатия конечных титров)
использовались программы
    DVDRemakePro
    Photoshop
    MuxMan
    Rebuilder и CCE (Cinema Craft Encoder), 5 проходов
    Работоспособность проверена на софтовом плеере Windows Media и бытовом LG
Свернуть
DVDInfo
    Title: Bunt.ushastyh_2011_DVD5.[R.G.Daredevil]
    Size: 4.33 Gb ( 4 540 424,00 KBytes ) - DVD-5
    Enabled regions: 1, 2, 3, 4, 5, 6, 7, 8

    VTS_01 :
    Play Length: 00:00:00
    Video: PAL 16:9 (720x576) VBR, Auto Letterboxed
    Audio:
    Not specified (Dolby AC3, 2 ch)
    Not specified (Dolby AC3, 2 ch)
    Not specified (Dolby AC3, 2 ch)
    Not specified (Dolby AC3, 2 ch)
    Not specified (Dolby AC3, 2 ch)
    Not specified (Dolby AC3, 2 ch)
    Not specified (Dolby AC3, 2 ch)
    Not specified (Dolby AC3, 2 ch)
    Subtitles:
    Not specified
    Not specified
    Not specified
    Not specified
    Not specified
    Not specified
    Not specified
    Not specified
    Not specified
    Not specified
    Not specified
    Not specified
    Not specified
    Not specified
    Not specified
    Not specified
    Not specified
    Not specified
    Not specified
    Not specified
    Not specified
    Not specified
    Not specified
    Not specified
    Not specified
    Not specified
    Not specified
    Not specified
    Not specified
    Not specified
    Not specified

    VTS_02 :
    Play Length: 01:31:08
    Video: PAL 16:9 (720x576) VBR, Auto Letterboxed
    Audio:
    English (Dolby AC3, 6 ch)
    Russian (Dolby AC3, 6 ch)
    Subtitles:
    English
    Ukrainian
    Russian
    Ukrainian

    VTS_03 :
    Play Length: 00:00:00+00:00:00+00:00:00+00:00:00
    Video: PAL 16:9 (720x576) VBR, Auto Letterboxed
    Audio:
    English (Dolby AC3, 2 ch)

    VTS_04 :
    Play Length: 00:00:00
    Video: PAL 16:9 (720x576) VBR, Auto Letterboxed
    Audio:
    English (Dolby AC3, 2 ch)
    Subtitles:
    English
    Russian

    VTS_05 :
    Play Length: 00:00:00
    Video: PAL 16:9 (720x576) VBR, Auto Letterboxed
    Audio:
    English (Dolby AC3, 2 ch)
    Subtitles:
    English
    Russian

    VTS_06 :
    Play Length: 00:00:00
    Video: PAL 16:9 (720x576) VBR, Auto Letterboxed
    Audio:
    English (Dolby AC3, 2 ch)
    Subtitles:
    English
    Russian

    VTS_07 :
    Play Length: 00:00:00
    Video: PAL 16:9 (720x576) VBR, Auto Letterboxed
    Audio:
    English (Dolby AC3, 2 ch)
    Subtitles:
    English
    Russian

    VTS_08 :
    Play Length: 00:00:00
    Video: PAL 16:9 (720x576) VBR, Auto Letterboxed
    Audio:
    English (Dolby AC3, 2 ch)
    Subtitles:
    English
    Russian

    VTS_09 :
    Play Length: 00:00:00
    Video: PAL 16:9 (720x576) VBR, Auto Letterboxed
    Audio:
    English (Dolby AC3, 2 ch)
    Subtitles:
    English
    Russian

    VTS_10 :
    Play Length: 00:00:00
    Video: PAL 16:9 (720x576) VBR, Auto Letterboxed
    Audio:
    English (Dolby AC3, 2 ch)
    Subtitles:
    English
    Russian

    VTS_11 :
    Play Length: 00:00:00+00:00:00+00:00:00+00:00:00+00:00:00+00:00:00
    Video: PAL 16:9 (720x576) VBR, Auto Letterboxed
    Audio:
    English (Dolby AC3, 2 ch)
    Subtitles:
    English
    Russian

    VTS_12 :
    Play Length: 00:00:00
    Video: PAL 4:3 (720x576) VBR

    VTS_13 :
    Play Length: 00:00:00
    Video: PAL 16:9 (720x576) VBR, Auto Letterboxed

    VTS_14 :
    Play Length: 00:00:00
    Video: PAL 16:9 (720x576) VBR, Auto Letterboxed
    Audio:
    English (Dolby AC3, 6 ch)

    VTS_15 :
    Play Length: 00:00:00
    Video: PAL 16:9 (720x576) VBR, Auto Letterboxed
    Audio:
    English (Dolby AC3, 6 ch)
Свернуть
mediainfo
    Формат : MPEG-PS
    Размер файла : 1024 Мбайт
    Продолжительность : 19 м.
    Режим общего битрейта : Переменный
    Общий поток : 7266 Кбит/сек

    Видео
    Идентификатор : 224 (0xE0)
    Формат : MPEG Video
    Версия формата : Version 2
    Профиль формата : Main@Main
    Параметр BVOP формата : Да
    Параметр матрицы формата : Выборочная
    Продолжительность : 19 м.
    Вид битрейта : Переменный
    Битрейт : 6353 Кбит/сек
    Максимальный битрейт : 8745 Кбит/сек
    Ширина : 720 пикселей
    Высота : 576 пикселей
    Соотношение сторон : 16:9
    Частота кадров : 25,000 кадров/сек
    Стандарт вещания : PAL
    Цветовое пространство : YUV
    Субдискретизация насыщенности : 4:2:0
    Битовая глубина : 8 бит
    Тип развёртки : Чересстрочная
    Порядок развёртки : Верхнее поле первое
    Метод сжатия : С потерями
    Бит/(Пиксели*Кадры) : 0.613
    Размер потока : 895 Мбайт (87%)

    Аудио #1
    Идентификатор : 189 (0xBD)-128 (0x80)
    Формат : AC-3
    Формат/Информация : Audio Coding 3
    Расширение режима : CM (complete main)
    Режим смешивания : DVD-Video
    Продолжительность : 19 м.
    Вид битрейта : Постоянный
    Битрейт : 384 Кбит/сек
    Каналы : 6 каналов
    Расположение каналов : Front: L C R, Side: L R, LFE
    Частота : 48,0 КГц
    Битовая глубина : 16 бит
    Метод сжатия : С потерями
    Размер потока : 54,1 Мбайт (5%)

    Аудио #2
    Идентификатор : 189 (0xBD)-129 (0x81)
    Формат : AC-3
    Формат/Информация : Audio Coding 3
    Расширение режима : CM (complete main)
    Режим смешивания : DVD-Video
    Продолжительность : 19 м.
    Вид битрейта : Постоянный
    Битрейт : 384 Кбит/сек
    Каналы : 6 каналов
    Расположение каналов : Front: L C R, Side: L R, LFE
    Частота : 48,0 КГц
    Битовая глубина : 16 бит
    Метод сжатия : С потерями
    Размер потока : 54,1 Мбайт (5%)

    Текст #1
    Идентификатор : 189 (0xBD)-32 (0x20)
    Формат : RLE
    Формат/Информация : Run-length encoding
    Режим смешивания : DVD-Video

    Текст #2
    Идентификатор : 189 (0xBD)-33 (0x21)
    Формат : RLE
    Формат/Информация : Run-length encoding
    Режим смешивания : DVD-Video

    Меню
Свернуть
Знаете ли Вы, что...
  • Фраза Дэвида Хэсселхоффа «Моя лучшая подруга - говорящая тачка» является отсылкой к сериалу «Рыцарь дорог» (1982-86 гг.), где главный герой в исполнении Дэвида управлял автомобилем, который умел разговаривать.
Свернуть
Скриншоты

меню
Изображение
Изображение
Изображение
Изображение
Изображение
Свернуть
Изображение
Изображение
Изображение
Изображение
Изображение
Свернуть


Последний раз редактировалось askboy 2012-04-03 15:31, всего редактировалось 1 раз.
Не в сети
Профиль  
 Добавлено: 2012-04-02 23:19 (спустя 5 месяцев 22 дня)
Стаж: 4 года 8 месяцев
Сообщений: 53
Лайков: 1
спасибо
Не в сети
Профиль  
Начать новую темуОтветить на тему  [ Сообщений: 2 ] 
Вы не можете начинать темы
Вы не можете отвечать на сообщения
Вы не можете редактировать свои сообщения
Вы не можете удалять свои сообщения