Правила форума

  • В этом разделе создание новых тем Запрещено.
  • Для создания новых тем пользуйтесь Корневым разделом DVD и HD фильмы.
Начать новую темуОтветить на тему  [ Сообщений: 5 ] 
Торрент файл
Размер: 4.36 GB • Зарегистрирован: 3 года 1 месяц • Статус: Проверено
Скачан: 99 раз • Желающих скачать: 0 • Поблагодарили: 47 раз
 Раздают: 1  |  0 KB/s  ]   Качают: 0  |  0 KB/s  ] 
Сообщения
 Добавлено: 2013-10-23 15:03
DVD Release Group
Аватара пользователя
Стаж: 7 лет 1 месяц
Сообщений: 3558
Спасибок: 247249
Лайков: 1018
Человек из стали

Man of Steel


Изображение


Год выпуска: 2013
Страна: США, Канада, Великобритания
Жанр: Фантастика, фэнтези, боевик, приключения
Продолжительность: 02:17:11
Перевод: Профессиональный (полное дублирование)
Cубтитры: Русские, английские, украинские, португальские, чешские, эстонские, латышские, литовские
Режиссер: Зак Снайдер
В ролях: Генри Кавилл, Эми Адамс, Майкл Шеннон, Кевин Костнер, Дайан Лэйн, Лоренс Фишбёрн, Антье Трое, Айелет Зурер, Рассел Кроу, Гарри Дж. Ленникс
Описание: Кларк Кент/Кал-Эл — молодой журналист, который чувствует себя чужаком из-за своей невероятной силы. Много лет назад он был отправлен на Землю с развитой планеты Криптон, и теперь задается вопросом: зачем? Воспитанный приемными родителями Мартой и Джонатаном Кентами, Кларк знает: обладать сверхспособностями — значит принимать сложные решения. Но когда человечество более всего нуждается в стабильности, оно подвергается нападению. Сможет ли герой восстановить мир, или воспользуется своей силой для того, чтобы окончательно его разрушить? Кларк должен стать супергероем известным как «Супермен», чтобы вселять надежду в сердца людей и защищать тех, кого он любит.
Изображение
Дополнительно:
Исходник: DVD9 (6.89Гб) [лицензия, PAL 16:9].
Убрано: За кулисами - Криптон: расшифровка (Рассказ Дилана Спрейберри), Короткометражный мультфильм, посвященный 75-летию появления Супермена, Новая Зеландия - родина Средиземья, Czech(Ceske) (Dolby AC3, 6 ch), Ukrainian (Dolby AC3, 6 ch), English (Dolby AC3, 2 ch), заставки и предупреждение.
Сжатие фильма 29% сжатия (без учета ручного перераспределения битрейта, за счет большего сжатия конечных титров).
Работоспособность проверена на софтовом плеере Windows Media и бытовом LG.
Качество: DVD5 (сжатый)
Формат: DVD Video
Видео кодек: MPEG2
Аудио кодек: AC3
Видео: 720х576 25fps 3721Kbps
Аудио:
Аудио Rus: 48kHz 6ch 384Kbps
Аудио Eng: 48kHz 6ch 384Kbps
"MediaInfo"
Формат : MPEG-PS
Размер файла : 1024 Мбайт
Продолжительность : 31 м.
Режим общего битрейта : Переменный
Общий поток : 4580 Кбит/сек

Видео
Идентификатор : 224 (0xE0)
Формат : MPEG Video
Версия формата : Version 2
Профиль формата : Main@Main
Параметр BVOP формата : Да
Параметр матрицы формата : Выборочная
Продолжительность : 31 м.
Вид битрейта : Переменный
Битрейт : 3721 Кбит/сек
Максимальный битрейт : 8135 Кбит/сек
Ширина : 720 пикселей
Высота : 576 пикселей
Соотношение сторон : 16:9
Частота кадров : 25,000 кадров/сек
Стандарт вещания : PAL
Цветовое пространство : YUV
Субдискретизация насыщенности : 4:2:0
Битовая глубина : 8 бит
Тип развёртки : Чересстрочная
Порядок развёртки : Верхнее поле первое
Метод сжатия : С потерями
Бит/(Пиксели*Кадры) : 0.359
Размер потока : 832 Мбайт (81%)

Аудио #1
Идентификатор : 189 (0xBD)-128 (0x80)
Формат : AC-3
Формат/Информация : Audio Coding 3
Расширение режима : CM (complete main)
Режим смешивания : DVD-Video
Продолжительность : 31 м.
Вид битрейта : Постоянный
Битрейт : 384 Кбит/сек
Каналы : 6 каналов
Расположение каналов : Front: L C R, Side: L R, LFE
Частота : 48,0 КГц
Битовая глубина : 16 бит
Метод сжатия : С потерями
Размер потока : 85,8 Мбайт (8%)

Аудио #2
Идентификатор : 189 (0xBD)-130 (0x82)
Формат : AC-3
Формат/Информация : Audio Coding 3
Расширение режима : CM (complete main)
Режим смешивания : DVD-Video
Продолжительность : 31 м.
Вид битрейта : Постоянный
Битрейт : 384 Кбит/сек
Каналы : 6 каналов
Расположение каналов : Front: L C R, Side: L R, LFE
Частота : 48,0 КГц
Битовая глубина : 16 бит
Метод сжатия : С потерями
Размер потока : 85,8 Мбайт (8%)

Текст #1
Идентификатор : 189 (0xBD)-32 (0x20)
Формат : RLE
Формат/Информация : Run-length encoding
Режим смешивания : DVD-Video

Текст #2
Идентификатор : 189 (0xBD)-33 (0x21)
Формат : RLE
Формат/Информация : Run-length encoding
Режим смешивания : DVD-Video

Текст #3
Идентификатор : 189 (0xBD)-34 (0x22)
Формат : RLE
Формат/Информация : Run-length encoding
Режим смешивания : DVD-Video

Текст #4
Идентификатор : 189 (0xBD)-35 (0x23)
Формат : RLE
Формат/Информация : Run-length encoding
Режим смешивания : DVD-Video

Текст #5
Идентификатор : 189 (0xBD)-36 (0x24)
Формат : RLE
Формат/Информация : Run-length encoding
Режим смешивания : DVD-Video

Текст #6
Идентификатор : 189 (0xBD)-37 (0x25)
Формат : RLE
Формат/Информация : Run-length encoding
Режим смешивания : DVD-Video

Текст #7
Идентификатор : 189 (0xBD)-38 (0x26)
Формат : RLE
Формат/Информация : Run-length encoding
Режим смешивания : DVD-Video

Текст #8
Идентификатор : 189 (0xBD)-39 (0x27)
Формат : RLE
Формат/Информация : Run-length encoding
Режим смешивания : DVD-Video

Меню
Свернуть

"Скриншоты"
Изображение
Изображение
Изображение
Изображение
Изображение
Изображение
Изображение
Изображение
Изображение
Свернуть
Не в сети
Профиль  
 Добавлено: 2013-11-10 03:12 (спустя 17 дней)
Стаж: 3 года 8 месяцев
Сообщений: 3
что то не похоже на dvd5
Не в сети
Профиль  
 Добавлено: 2013-11-10 03:44 (спустя 31 минута)
DVD Release Group
Аватара пользователя
Стаж: 7 лет 1 месяц
Сообщений: 3558
Спасибок: 247249
Лайков: 1018

lynneex:

что то не похоже на dvd5
А на что похоже, на DVD2?
Не в сети
Профиль  
 Добавлено: 2013-12-15 23:37 (спустя 1 месяц 5 дней)
Стаж: 2 года 11 месяцев
Сообщений: 9
Качество нормальное) смотреть можно)
_________________
Заработок в интернете без особых усилий!

SEO sprint — это уникальный сервис, созданный специально для орга­ни­за­ции эффективного продвижения ваших интернет-проектов. Для этих целей SEO sprint предоставляет 7 методов раскрутки.
Специально для Вас:
-Пять методов заработка
-Мгновенные выплаты в нескольких платёжных системах
-удобный и многофункциональный интерфейс

Ссылка для регистрации на сайте: http://goo.gl/Pqu1nQ
Не в сети
Профиль  
 Добавлено: 2014-01-12 16:04 (спустя 27 дней)
Аватара пользователя
Стаж: 6 лет 6 месяцев
Сообщений: 74
ребят а что делать если по телеку смотреть звук ни как не переключается на русский меню сразу пролистывает и запускает фильм
Не в сети
Профиль  
Начать новую темуОтветить на тему  [ Сообщений: 5 ] 
Вы не можете начинать темы
Вы не можете отвечать на сообщения
Вы не можете редактировать свои сообщения
Вы не можете удалять свои сообщения