Правила форума

  • В этом разделе создание новых тем Запрещено.
  • Для создания новых тем пользуйтесь Корневым разделом DVD и HD фильмы.
Начать новую темуОтветить на тему  [ Сообщений: 5 ] 
Торрент файл
Размер: 4.37 GB • Зарегистрирован: 5 лет • Статус: Проверено
Скачан: 202 раза • Желающих скачать: 0 • Поблагодарили: 30 раз
 Раздают: 0  |  0 KB/s  ]   Качают: 0  |  0 KB/s  ] 
 Полного источника не было 2 года 1 месяц 
Сообщения
 Добавлено: 2011-11-14 23:48
Руководитель релиз-группы
Аватара пользователя
Стаж: 7 лет 5 месяцев
Возраст: 31
Сообщений: 3406
Спасибок: 46729
Лайков: 5
Изображение

Человек, который изменил всё
Moneyball


Год выпуска: 2011
Страна: США
Слоган: «А что в жизни сделал ты?»
Жанр: драма, биография, спорт
Продолжительность: 02:07:45
Перевод: Профессиональный (полное дублирование)
Режиссер: Беннетт Миллер
Сценарий: Стивен Зэйллян, Аарон Соркин, Стэн Червин
Продюсер: Майкл Де Лука, Рэйчел Хоровиц, Брэд Питт
Оператор: Уолли Пфистер
Композитор: Майкл Дэнна
В ролях: Брэд Питт, Джона Хилл, Филип Сеймур Хоффман, Робин Райт, Крис Прэтт, Стефен Бишоп, Брент Дженнингс, Кен Медлок, Тэмми Бланчард, Джек МакГ
Бюджет: $50 000 000
Сборы в мире: $79 192 000
Описание: Фильм по книге Майкла M. Льюиса, изданной в 2003 году, об Оклендской бейсбольной команде и ее генеральном менеджере, Билли Бине. Его цель - создать конкурентоспособную бейсбольную команду, несмотря на финансовые трудности.
Изображение
MPAA: Изображение
Релиз: Изображение Раздача группы: Изображение
Качество: DVD5 (сжатый)
Формат: DVD Video
Видео: MPEG2; PAL 16:9 (720x576)
Аудио: Dolby AC3, 6 ch, 448 Kbps Russian
Субтитры: русские (форсированные)
Дополнительная информация :
Исходник : DVD9 (6.89 Гб) [лицензия, PAL 16:9]
Убрано : реклама, заставки, предупреждения
Сжатие фильма : 39.3 % сжатия (без учета ручного перераспределения битрейта, за счет большего сжатия конечных титров)
использовались программы
    DVDRemakePro
    Rebuilder и CCE (Cinema Craft Encoder), 5 проходов
    Работоспособность проверена на софтовом плеере Windows Media и бытовом LG
Свернуть
DVDInfo
    Title: Chelovek.kotoriy.izmenil.vse_2011_DVD5.[R.G.Daredevil]
    Size: 4.37 Gb ( 4 581 244,00 KBytes ) - DVD-5
    Enabled regions: 1, 2, 3, 4, 5, 6, 7, 8

    VTS_01 :
    Play Length: 02:07:45
    Video: PAL 16:9 (720x576) VBR, Auto Letterboxed
    Audio:
    Russian (Dolby AC3, 6 ch)
    Subtitles:
    Russian

    * Menus Information *

    VIDEO_TS Menu
    Video:
    PAL 16:9 (720x576) VBR
    Auto Letterboxed
    Audio:
    Not specified (Dolby AC3, 6 ch)
    Russian Language Unit :
    Title Menu

    VTS_01 Menu
    Video:
    PAL 16:9 (720x576) VBR
    Auto Pan&Scan
    Audio:
    Not specified (Dolby AC3, 6 ch)
    Russian Language Unit :
    Root Menu
    Chapter (PTT) Menu
Свернуть
mediainfo
    Формат : MPEG-PS
    Размер файла : 1024 Мбайт
    Продолжительность : 27 м.
    Режим общего битрейта : Переменный
    Общий поток : 5171 Кбит/сек

    Видео
    Идентификатор : 224 (0xE0)
    Формат : MPEG Video
    Версия формата : Version 2
    Профиль формата : Main@Main
    Параметр BVOP формата : Да
    Параметр матрицы формата : Выборочная
    Продолжительность : 27 м.
    Вид битрейта : Переменный
    Битрейт : 4620 Кбит/сек
    Максимальный битрейт : 8934 Кбит/сек
    Ширина : 720 пикселей
    Высота : 576 пикселей
    Соотношение сторон : 16:9
    Частота кадров : 25,000 кадров/сек
    Стандарт вещания : PAL
    Цветовое пространство : YUV
    Субдискретизация насыщенности : 4:2:0
    Битовая глубина : 8 бит
    Тип развёртки : Чересстрочная
    Порядок развёртки : Верхнее поле первое
    Метод сжатия : С потерями
    Бит/(Пиксели*Кадры) : 0.446
    Размер потока : 915 Мбайт (89%)

    Аудио
    Идентификатор : 189 (0xBD)-128 (0x80)
    Формат : AC-3
    Формат/Информация : Audio Coding 3
    Расширение режима : CM (complete main)
    Режим смешивания : DVD-Video
    Продолжительность : 27 м.
    Вид битрейта : Постоянный
    Битрейт : 448 Кбит/сек
    Каналы : 6 каналов
    Расположение каналов : Front: L C R, Side: L R, LFE
    Частота : 48,0 КГц
    Битовая глубина : 16 бит
    Метод сжатия : С потерями
    Размер потока : 88,7 Мбайт (9%)

    Меню
Свернуть
Скриншоты

меню
Изображение
Изображение
Свернуть
Изображение
Изображение
Изображение
Изображение
Свернуть


Последний раз редактировалось askboy 2011-11-15 14:57, всего редактировалось 1 раз.
Не в сети
Профиль  
 Добавлено: 2011-11-15 13:20 (спустя 13 часов)
Аватара пользователя
Стаж: 5 лет 5 месяцев
Сообщений: 36
askboy
Спасииииииибо! :bra_vo: :co_ol:
Не в сети
Профиль  
 Добавлено: 2011-11-15 13:58 (спустя 38 минут)
Аватара пользователя
Стаж: 7 лет 2 месяца
Возраст: 26
Сообщений: 221
Спасибок: 175
Вовремя запилили, спасибо огромное!
Не в сети
Профиль  
 Добавлено: 2012-12-02 22:16 (спустя 1 год)
Стаж: 7 лет 8 месяцев
Сообщений: 105
фильм ... , стоит просмотра
Не в сети
Профиль  
 Добавлено: 2012-12-04 21:35 (спустя 1 день 23 часа)
Стаж: 7 лет 3 месяца
Сообщений: 37
Спасибо)
Не в сети
Профиль  
Начать новую темуОтветить на тему  [ Сообщений: 5 ] 
Вы не можете начинать темы
Вы не можете отвечать на сообщения
Вы не можете редактировать свои сообщения
Вы не можете удалять свои сообщения