Правила форума

  • В этом разделе создание новых тем Запрещено.
  • Для создания новых тем пользуйтесь Корневым разделом DVD и HD фильмы.
Начать новую темуОтветить на тему  [ 1 сообщение ] 
Торрент файл
Размер: 7.72 GB • Зарегистрирован: 4 года 4 месяца • Статус: Проверено
Скачан: 15 раз • Желающих скачать: 0 • Поблагодарили: 3 раза
 Раздают: 0  |  0 KB/s  ]   Качают: 0  |  0 KB/s  ] 
 Полного источника не было 2 года 11 месяцев 
Сообщения
 Добавлено: 2012-07-25 20:23
Аватара пользователя
Стаж: 5 лет 6 месяцев
Возраст: 30
Сообщений: 353
Спасибок: 7455
Черное золото / Black Gold

Изображение


Год выпуска: 2011
Страна: Франция, Италия, Тунис, Катар (Carthago Films S.a.r.l., Doha Film Institute, The, France 2 Cinéma, Quinta Communica)
Жанр: драма
Продолжительность: 02:04:55
Перевод: Профессиональный (дубляж)
Дублеры: Николай Быстров, Всеволод Кузнецов, Василий Дахненко, Анастасия Нестеренко, Диомид Виноградов + Оригинальная звуковая дорожка + Профессиональный (дубляж)
Дублеры: Николай Быстров, Всеволод Кузнецов, Василий Дахненко, Анастасия Нестеренко, Диомид Виноградов
Субтитры: Русские

Режиссёр: Жан-Жак Анно / Jean-Jacques Annaud
Сценарист: Менно Мейес, Жан-Жак Анно, Ален Годар
Продюсер: Тарак Бен Аммар, Naoufel Ben Youssef, Ксавьер Кастано
Оператор: Жан-Мари Дрёжу
Композитор: Джеймс Хорнер
В ролях: Тахар Рахим, Антонио Бандерас, Марк Стронг, Фрида Пинто, Риз Ахмед, Джамал Авар, Лотфи Дзири, Эрик Эбони, Акин Гази, Лия Кебеде, Кори Джонсон, Жан Уддин

Описание: События картины разворачиваются где-то на Аравийском полуострове в 30 годы, примерно в то время, когда там была обнаружена нефть. В сюжете переплелись борьба за власть, религия, нефтяная лихорадка и, конечно же, любовь.

Доп.информация: Создание "Черное золото", трейлер, анонсы
Мировая премьера: 25 октября 2011
Премьера в России: 12 января 2012, «West»
Бюджет: €40 000 000

Изображение Изображение Изображение

Качество: DVD9 R5
Формат: DVD Video
Видео кодек: MPEG2
Аудио кодек: DTS
Видео: PAL 16:9 (720x576(0.464)) MPEG Video, 25,000 кадр/сек, 4808 Кбит/сек
Аудио #1: Russian (Dolby AC3, 6 ch) 384 Кбит/сек, 48,0 КГц [Профессиональный (дубляж)]
Аудио #2: English (Dolby AC3, 6 ch) 384 Кбит/сек, 48,0 КГц [Оригинальная звуковая дорожка]
Аудио #3: Russian (DTS, 5 ch) 768 Кбит/сек, 48,0 КГц [Профессиональный (дубляж)]
Субтитры: Русские

"DVDInfo"
Title:
Size: 7.72 Gb ( 8,093,192 KBytes ) - DVD-9
Enabled regions: 1, 2, 3, 4, 5, 6, 7, 8

VTS_01 :
Play Length: 00:00:23
Video: PAL 4:3 (720x576) VBR

VTS_02 :
Play Length: 00:38:56
Video: PAL 16:9 (720x576) VBR, Auto Pan&Scan
Audio:
Russian (Dolby AC3, 2 ch)
English (Dolby AC3, 2 ch)

VTS_03 :
Play Length: 00:02:17
Video: PAL 16:9 (720x576) VBR, Auto Pan&Scan
Audio:
Russian (Dolby AC3, 2 ch)
Russian (Dolby AC3, 2 ch)

VTS_04 :
Play Length: 00:02:13
Video: PAL 16:9 (720x576) VBR, Auto Pan&Scan
Audio:
Russian (Dolby AC3, 2 ch)
Russian (Dolby AC3, 2 ch)

VTS_05 :
Play Length: 00:01:42
Video: PAL 16:9 (720x576) VBR, Auto Pan&Scan
Audio:
Russian (Dolby AC3, 2 ch)
Russian (Dolby AC3, 2 ch)

VTS_06 :
Play Length: 02:04:55
Video: PAL 16:9 (720x576) VBR, Auto Pan&Scan, Auto Letterboxed
Audio:
Russian (Dolby AC3, 6 ch)
English (Dolby AC3, 6 ch)
Russian (DTS, 5 ch)
Subtitles:
Russian

Menu Video:
PAL 16:9 (720x576) VBR
Auto Pan&Scan, Auto Letterboxed
Menu Subtitles:
Not specified
Menu English Language Unit :
Root Menu
Свернуть

"MediaInfo"
Общее
Полное имя : J:\Новинки 2012\Chernoe.zoloto.2011.DVD9\VIDEO_TS\VTS_06_1.VOB
Формат : MPEG-PS
Размер файла : 1024 Мбайт
Продолжительность : 22 м.
Режим общего битрейта : Переменный
Общий поток : 6459 Кбит/сек

Видео
Идентификатор : 224 (0xE0)
Формат : MPEG Video
Версия формата : Version 2
Профиль формата : Main@Main
Параметр BVOP формата : Да
Параметр матрицы формата : По умолчанию
Параметр GOP формата : M=3, N=12
Продолжительность : 22 м.
Вид битрейта : Переменный
Битрейт : 4808 Кбит/сек
Максимальный битрейт : 8100 Кбит/сек
Ширина : 720 пикселей
Высота : 576 пикселей
Соотношение сторон : 16:9
Частота кадров : 25,000 кадров/сек
Стандарт вещания : PAL
Цветовое пространство : YUV
Субдискретизация насыщенности : 4:2:0
Битовая глубина : 8 бит
Тип развёртки : Прогрессивная
Метод сжатия : С потерями
Бит/(Пиксели*Кадры) : 0.464
Размер потока : 762 Мбайт (74%)

Аудио #1
Идентификатор : 189 (0xBD)-128 (0x80)
Формат : AC-3
Формат/Информация : Audio Coding 3
Расширение режима : CM (complete main)
Параметр Endianness формата : Big
Режим смешивания : DVD-Video
Продолжительность : 22 м.
Вид битрейта : Постоянный
Битрейт : 384 Кбит/сек
Каналы : 6 каналов
Расположение каналов : Front: L C R, Side: L R, LFE
Частота : 48,0 КГц
Битовая глубина : 16 бит
Метод сжатия : С потерями
Задержка видео : -80 мс.
Размер потока : 60,9 Мбайт (6%)

Аудио #2
Идентификатор : 189 (0xBD)-129 (0x81)
Формат : AC-3
Формат/Информация : Audio Coding 3
Расширение режима : CM (complete main)
Параметр Endianness формата : Big
Режим смешивания : DVD-Video
Продолжительность : 22 м.
Вид битрейта : Постоянный
Битрейт : 384 Кбит/сек
Каналы : 6 каналов
Расположение каналов : Front: L C R, Side: L R, LFE
Частота : 48,0 КГц
Битовая глубина : 16 бит
Метод сжатия : С потерями
Задержка видео : -80 мс.
Размер потока : 60,9 Мбайт (6%)

Аудио #3
Идентификатор : 189 (0xBD)-138 (0x8A)
Формат : DTS
Формат/Информация : Digital Theater Systems
Режим смешивания : DVD-Video
Продолжительность : 22 м.
Вид битрейта : Постоянный
Битрейт : 755 Кбит/сек
Каналы : 6 каналов
Расположение каналов : Front: L C R, Side: L R, LFE
Частота : 48,0 КГц
Битовая глубина : 24 бит
Метод сжатия : С потерями
Задержка видео : -80 мс.
Размер потока : 120 Мбайт (12%)

Текст
Идентификатор : 189 (0xBD)-32 (0x20)
Формат : RLE
Формат/Информация : Run-length encoding
Режим смешивания : DVD-Video

Свернуть

Скриншоты
Скриншоты меню
Изображение
Изображение
Изображение
Свернуть
Скриншоты фильма
Изображение
Изображение
Изображение
Изображение
Изображение
Изображение
Изображение
Изображение
Изображение
Изображение
Свернуть
Скриншоты доп.материалов
Изображение
Изображение
Изображение
Изображение
Изображение
Изображение
Свернуть
Свернуть


Изображение
Не в сети
Профиль  
Начать новую темуОтветить на тему  [ 1 сообщение ] 
Вы не можете начинать темы
Вы не можете отвечать на сообщения
Вы не можете редактировать свои сообщения
Вы не можете удалять свои сообщения