Правила форума

  • В этом разделе создание новых тем Запрещено.
  • Для создания новых тем пользуйтесь Корневым разделом DVD и HD фильмы.
Начать новую темуОтветить на тему  [ 1 сообщение ] 
Торрент файл
Размер: 4.27 GB • Зарегистрирован: 3 года 3 месяца • Статус: Проверено
Скачан: 6 раз • Желающих скачать: 0 • Поблагодарили: 3 раза
 Раздают: 0  |  0 KB/s  ]   Качают: 0  |  0 KB/s  ] 
 Полного источника не было 3 года 1 месяц 
Сообщения
 Добавлено: 2013-08-18 13:31
Модератор
Аватара пользователя
Стаж: 8 лет 2 месяца
Возраст: 30
Сообщений: 3200
Спасибок: 2960
Лайков: 206
День без мексиканца / A Day Without a Mexican

Изображение


Год выпуска: 2004
Страна: США, Мексика, Испания (Eye on the Ball Films)
Слоган: «On May 14 there will be no Mexicans in California.»
Жанр: фэнтези, драма, комедия, детектив
Продолжительность: 100 мин
Перевод: Профессиональный (многоголосый закадровый) + Оригинальная звуковая дорожка
Субтитры: Русские, Украинские

Режиссёр: Серджо Арау
Сценарист: Серджо Арау, Ярели Арисменди, Серджо Герерро
Продюсер: Исаак Артенштейн, Альваро Гарница, Франсиско Гонсалес Компеан
Оператор: Алан Кодильо
Композитор: Хуан Коломер
В ролях:
Кэролайн Аарон, Тони Абатемарко, Мелинда Аллен, Фрэнки Дж. Эллисон, Фернандо Арау, Ярели Арисменди, Тодд Бэбкок,
Мария Бек, Йениффер Беренс, Эрелл Блэнтон, Кэссиди Пэйдж Брингас, Брайан Брофи, Эльпидия Каррильо, Мария Кампоррендондо
Нили, Ларри Кэрролл, Морин Флэнниган, Хоакин Гарридо, Джон Гец, Карлос Гомес, Рик Нахера, Джейсон Стюарт, Мьюз Уотсон,Майкл Уайт
Описание:
Однажды калифорнийцы проснулись и обнаружили, что в штате не осталось ни одного "латино". Необъяснимое исчезновение "латино" оборачивается хаосом, трагедией и комедией... Калифорния в шоке.
Рейтинг MPAA: Рейтинг R (Подростки до 17 лет допускаются на фильм только в сопровождении одного из родителей)
Мировая премьера: 14 мая 2004
Премьера в России: 2 марта 2006
Бюджет: $1 500 000
Кассовые сборы: $10 057 021
Изображение
Изображение
Изображение
Изображение

Качество: DVD5
Формат: DVD Video
Видео кодек: MPEG2
Аудио кодек: AC3 (Dolby Digital)
Видео: NTSC 16:9 (720x480) VBR
Аудио #1: Dolby AC3, 48000Hz, 16bits, 6 ch [Профессиональный (многоголосый закадровый)]
Аудио #2: Dolby AC3, 48000Hz, 16bits 6 ch [Оригинальная звуковая дорожка]
Субтитры: Русские, Украинские
MediaInfo
Video #224
ID : 224 (0xE0)
Format : MPEG Video
Format version : Version 2
Format profile : Main@Main
Format settings, BVOP : Yes
Format settings, Matrix : Custom
Format settings, GOP : M=3, N=15
Duration : 23mn 6s
Bit rate mode : Variable
Bit rate : 5 301 Kbps
Maximum bit rate : 8 900 Kbps
Width : 720 pixels
Height : 480 pixels
Display aspect ratio : 4:3
Frame rate : 29.970 fps
Standard : NTSC
Color space : YUV
Chroma subsampling : 4:2:0
Bit depth : 8 bits
Scan type : Interlaced
Scan order : Top Field First
Compression mode : Lossy
Bits/(Pixel*Frame) : 0.512
Stream size : 876 MiB (86%)
Audio #189-128
ID : 189 (0xBD)-128 (0x80)
Format : AC-3
Format/Info : Audio Coding 3
Mode extension : CM (complete main)
Format settings, Endianness : Big
Muxing mode : DVD-Video
Duration : 23mn 6s
Bit rate mode : Constant
Bit rate : 384 Kbps
Channel(s) : 6 channels
Channel positions : Front: L C R, Side: L R, LFE
Sampling rate : 48.0 KHz
Bit depth : 16 bits
Compression mode : Lossy
Delay relative to video : -277ms
Stream size : 63.5 MiB (6%)
Audio #189-129
ID : 189 (0xBD)-129 (0x81)
Format : AC-3
Format/Info : Audio Coding 3
Mode extension : CM (complete main)
Format settings, Endianness : Big
Muxing mode : DVD-Video
Duration : 23mn 6s
Bit rate mode : Constant
Bit rate : 384 Kbps
Channel(s) : 6 channels
Channel positions : Front: L C R, Side: L R, LFE
Sampling rate : 48.0 KHz
Bit depth : 16 bits
Compression mode : Lossy
Delay relative to video : -277ms
Stream size : 63.5 MiB (6%)
Text #189-32
ID : 189 (0xBD)-32 (0x20)
Format : RLE
Format/Info : Run-length encoding
Muxing mode : DVD-Video
Duration : 23mn 3s
Delay relative to video : 1s 202ms
Text #189-33
ID : 189 (0xBD)-33 (0x21)
Format : RLE
Format/Info : Run-length encoding
Muxing mode : DVD-Video
Duration : 23mn 3s
Delay relative to video : 1s 202ms
Свернуть

Скриншоты
Изображение
Изображение
Изображение
Изображение
Изображение
Свернуть
Не в сети
Профиль  
Начать новую темуОтветить на тему  [ 1 сообщение ] 
Вы не можете начинать темы
Вы не можете отвечать на сообщения
Вы не можете редактировать свои сообщения
Вы не можете удалять свои сообщения