Правила форума

  • В этом разделе создание новых тем Запрещено.
  • Для создания новых тем пользуйтесь Корневым разделом DVD и HD фильмы.
Начать новую темуОтветить на тему  [ Сообщений: 2 ] 
Торрент файл
Размер: 5.54 GB • Зарегистрирован: 5 лет • Статус: Проверено
Скачан: 44 раза • Желающих скачать: 0 • Поблагодарили: 6 раз
 Раздают: 0  |  0 KB/s  ]   Качают: 0  |  0 KB/s  ] 
 Полного источника не было 3 года 
Сообщения
 Добавлено: 2011-11-23 00:51
Аватара пользователя
Стаж: 5 лет 5 месяцев
Возраст: 30
Сообщений: 353
Спасибок: 7455
Дети шпионов 4D / Spy Kids: All the Time in the World in 4D

Изображение


Год выпуска: 2011
Страна: США (Dimension Films, Troublemaker Studios)
Слоган: «Первый фильм в формате 4D»
Жанр: фантастика, боевик, комедия, приключения, семейный
Продолжительность: 01:25:13
Перевод: Профессиональный (дубляж)
Дублеры: Жанна Никонова, Василий Дахненко, Вероника Саркисова, Лиза Мартиросова, Илья Исаев
Субтитры: Нет

Режиссёр: Роберт Родригес / Robert Rodriguez
Сценарист: Роберт Родригес / Robert Rodriguez
Продюсер: Элизабет Авеллан, Роберт Родригес, Джордж Хуанг
Оператор: Джимми Линдси, Роберт Родригес
Композитор: Роберт Родригес, Карл Тиль

В ролях: Джессика Альба, Дэнни Трехо, Джоэль МакХэйл, Алекса Вега, Дэрил Сабара, Роуэн Бланчард, Мэйсон Кук, Джереми Пивен, Белль Солорзано, Дженни Солорзано

Описание: Брат и сестра поневоле должны стать крутыми шпионами, чтобы помешать мечтающему о мировом господстве злодею, и выручить из беды собственную мачеху — секретного суперагента, удалившегося на покой.

Доп.информация: Анонсы
Рейтинг MPAA: Рейтинг G (Фильм демонстрируется без ограничений)
Мировая премьера: 18 августа 2011
Премьера в России: 18 августа 2011, «Централ Партнершип» 3D
Бюджет: $27 000 000
Кассовые сборы: + $34 866 432 = $73 332 707

Изображение Изображение Изображение

Качество: DVD9 R5
Формат: DVD Video
Видео кодек: MPEG2
Аудио кодек: AC3 (Dolby Digital)
Видео: PAL 16:9 (720x576(0.678)) MPEG Video, 25,000 кадр/сек, 7026 Кбит/сек
Аудио #1: Russian (Dolby AC3, 6 ch) 448 Кбит/сек, 48,0 КГц [Профессиональный (дубляж)]
Субтитры: Нет

"DVDInfo"
Title:
Size: 5.54 Gb ( 5 810 200 KBytes ) - DVD-9
Enabled regions: 1, 2, 3, 4, 5, 6, 7, 8

VTS_01 :
Play Length: 00:00:15
Video: PAL 4:3 (720x576) VBR
Audio:
Not specified (Dolby AC3, 2 ch)

VTS_02 :
Play Length: 00:00:08
Video: PAL 16:9 (720x576) VBR, Auto Pan&Scan
Audio:
Not specified (Dolby AC3, 2 ch)

VTS_03 :
Play Length: 00:00:18
Video: PAL 16:9 (720x576) VBR, Auto Pan&Scan
Audio:
Not specified (Dolby AC3, 2 ch)
Not specified (Dolby AC3, 2 ch)

VTS_04 :
Play Length: 01:25:13
Video: PAL 16:9 (720x576) VBR, Auto Pan&Scan
Audio:
Russian (Dolby AC3, 6 ch)

VTS_05 :
Play Length: 00:01:34
Video: PAL 16:9 (720x576) VBR, Auto Pan&Scan
Audio:
Not specified (Dolby AC3, 2 ch)

VTS_06 :
Play Length: 00:01:19
Video: PAL 16:9 (720x576) VBR, Auto Pan&Scan
Audio:
Not specified (Dolby AC3, 2 ch)

VTS_07 :
Play Length: 00:02:19
Video: PAL 16:9 (720x576) VBR, Auto Pan&Scan
Audio:
Not specified (Dolby AC3, 2 ch)

VTS_08 :
Play Length: 00:02:00
Video: PAL 16:9 (720x576) VBR, Auto Pan&Scan
Audio:
Not specified (Dolby AC3, 2 ch)

VTS_09 :
Play Length: 00:01:18
Video: PAL 16:9 (720x576) VBR, Auto Pan&Scan
Audio:
Not specified (Dolby AC3, 2 ch)

VTS_10 :
Play Length: 00:01:57
Video: PAL 16:9 (720x576) VBR, Auto Pan&Scan
Audio:
Not specified (Dolby AC3, 2 ch)
Subtitles:
Russian

VTS_11 :
Play Length: 00:02:02
Video: PAL 16:9 (720x576) VBR, Auto Pan&Scan
Audio:
Not specified (Dolby AC3, 2 ch)

VTS_12 :
Play Length: 00:01:52
Video: PAL 16:9 (720x576) VBR, Auto Pan&Scan
Audio:
Not specified (Dolby AC3, 2 ch)

VTS_13 :
Play Length: 00:02:00
Video: PAL 16:9 (720x576) VBR, Auto Pan&Scan
Audio:
Not specified (Dolby AC3, 2 ch)

VTS_14 :
Play Length: 00:01:37
Video: PAL 16:9 (720x576) VBR, Auto Pan&Scan
Audio:
Not specified (Dolby AC3, 2 ch)

VTS_15 :
Play Length: 00:01:56
Video: PAL 16:9 (720x576) VBR, Auto Pan&Scan
Audio:
Not specified (Dolby AC3, 2 ch)

VTS_16 :
Play Length: 00:02:03
Video: PAL 16:9 (720x576) VBR, Auto Pan&Scan
Audio:
Not specified (Dolby AC3, 2 ch)

VTS_17 :
Play Length: 00:01:45
Video: PAL 16:9 (720x576) VBR, Auto Pan&Scan
Audio:
Not specified (Dolby AC3, 2 ch)
Свернуть

"MediaInfo"
Общее
Полное имя : G:\Новинки 2011\Deti.shpionov.4D.2011.DVD9\VIDEO_TS\VTS_04_2.VOB
Формат : MPEG-PS
Размер файла : 1024 Мбайт
Продолжительность : 18 м.
Общий поток : 7625 Кбит/сек

Видео
Идентификатор : 224 (0xE0)
Формат : MPEG Video
Версия формата : Version 2
Профиль формата : Main@Main
Параметр BVOP формата : Да
Параметр матрицы формата : По умолчанию
Параметр GOP формата : M=3, N=12
Продолжительность : 18 м.
Вид битрейта : Переменный
Битрейт : 7026 Кбит/сек
Максимальный битрейт : 7800 Кбит/сек
Ширина : 720 пикселей
Высота : 576 пикселей
Соотношение сторон : 16:9
Частота кадров : 25,000 кадров/сек
Стандарт вещания : PAL
Цветовое пространство : YUV
Субдискретизация насыщенности : 4:2:0
Битовая глубина : 8 бит
Тип развёртки : Прогрессивная
Метод сжатия : С потерями
Бит/(Пиксели*Кадры) : 0.678
Размер потока : 943 Мбайт (92%)

Аудио
Идентификатор : 189 (0xBD)-128 (0x80)
Формат : AC-3
Формат/Информация : Audio Coding 3
Расширение режима : CM (complete main)
Режим смешивания : DVD-Video
Продолжительность : 18 м.
Вид битрейта : Постоянный
Битрейт : 448 Кбит/сек
Каналы : 6 каналов
Расположение каналов : Front: L C R, Side: L R, LFE
Частота : 48,0 КГц
Битовая глубина : 16 бит
Метод сжатия : С потерями
Задержка видео : -288 мс.
Размер потока : 60,2 Мбайт (6%)

Свернуть

Скриншоты
Скриншоты меню
Изображение
Изображение
Изображение
Свернуть
Изображение
Изображение
Изображение
Изображение
Изображение
Изображение
Изображение
Изображение
Свернуть

Знаете ли Вы, что...
Посетители кинотеатров в Северной Америке и России перед сеансом получат специальную карточку, на которую нанесены пахучие вещества. Всего будет 8 «ячеек», которые нужно стереть в определенный момент фильма. Зрителям подскажут, когда это сделать. На экране появятся цифры, а зрители должны будут стирать соответствующий защитный слой на своих карточках и чтобы узнать, какой запах ощущают герои картины. Новое приспособление решили назвать «Аромаскоуп».
Свернуть
ИзображениеИзображение
Не в сети
Профиль  
 Добавлено: 2011-11-23 08:51 (спустя 7 часов)
Аватара пользователя
Стаж: 7 лет 5 месяцев
Сообщений: 226
Лайков: 2
ЧЁ это .....а геде Бандерос?
Не в сети
Профиль  
Начать новую темуОтветить на тему  [ Сообщений: 2 ] 
Вы не можете начинать темы
Вы не можете отвечать на сообщения
Вы не можете редактировать свои сообщения
Вы не можете удалять свои сообщения