Правила форума

  • В этом разделе создание новых тем Запрещено.
  • Для создания новых тем пользуйтесь Корневым разделом DVD и HD фильмы.
Начать новую темуОтветить на тему  [ 1 сообщение ] 
Торрент файл
Размер: 4.37 GB • Зарегистрирован: 5 лет • Статус: Проверено
Скачан: 52 раза • Желающих скачать: 0 • Поблагодарили: 8 раз
 Раздают: 0  |  0 KB/s  ]   Качают: 0  |  0 KB/s  ] 
 Полного источника не было 3 года 3 месяца 
Сообщения
 Добавлено: 2011-12-04 00:20
Руководитель релиз-группы
Аватара пользователя
Стаж: 7 лет 4 месяца
Возраст: 31
Сообщений: 3407
Спасибок: 46729
Лайков: 5
Изображение

Диагноз любовь
Coming & Going


Год выпуска: 2011
Страна: США
Слоган: «Lying is Easy, Love is Hard»
Жанр: комедия
Продолжительность: 01:29:00
Перевод: Профессиональный (многоголосый, закадровый)
Режиссер: Эдоардо Понти
Сценарий: Dewayne Darian Jones, Dewayne Darian Jones, Эдоардо Понти
Продюсер: Эдоардо Понти, Скотт М. Розенфельт, Matthew Ackerson
Оператор: Эрнест Холцман
Композитор: Уильям Гудрам
В ролях: Риз Дэрби, Саша Александр, Фионнула Флэнаган, Пэм Кук, Майкл Корначчиа, Брайан Хукс, Ивана Миличевич, Карла Галло, Мэтер Зикел, Омар Авила...
Описание: Ли - молодой квалифицированный гинеколог. В своем кабинете он всесилен, но для того, чтобы заговорить с женщиной вне клиники, ему не хватает уверенности. Его мама хочет найти ему хорошую девушку, из-за чего он постоянно попадает в неудобные ситуации.
Нелепая случайность временно приковывает его к инвалидной коляске, и как раз в этом время он встречает девушку своей мечты. Убежденный в том, что она обратила на него внимание только из-за кресла, он остается в нем даже после того, как вылечивается от травмы. Но сможет ли эта маленькая ложь помочь ему?
Изображение
Релиз: Изображение Раздача группы: Изображение
Качество: DVD5 (сжатый)
Формат: DVD Video
Видео: MPEG2; PAL 16:9 (720x576)
Аудио: Dolby AC3, 6 ch, 448 Kbps Russian
Субтитры: нет
Дополнительная информация :
Исходник : DVD9 (5.03 Гб) [лицензия, PAL 16:9]
Убрано : заставки, предупреждения
Сжатие фильма : 16 % сжатия (без учета ручного перераспределения битрейта, за счет большего сжатия конечных титров)
использовались программы
    DVDRemakePro
    Rebuilder и CCE (Cinema Craft Encoder), 5 проходов
    Работоспособность проверена на софтовом плеере Windows Media и бытовом LG
Свернуть
DVDInfo
    Title: Diagnoz.lubov_2011_DVD5.[R.G.Daredevil]
    Size: 4.37 Gb ( 4 587 208,00 KBytes ) - DVD-5
    Enabled regions: 1, 2, 3, 4, 5, 6, 7, 8

    VTS_01 :
    Play Length: 00:00:00
    Video: PAL 16:9 (720x576) VBR, Auto Letterboxed
    Audio:
    Russian (Dolby AC3, 2 ch)

    VTS_02 :
    Play Length: 01:29:00
    Video: PAL 16:9 (720x576) VBR, Auto Letterboxed
    Audio:
    Russian (Dolby AC3, 6 ch)

    * Menus Information *

    VIDEO_TS Menu
    Video:
    NTSC 4:3 (720x480) VBR
    Auto Pan&Scan, Auto Letterboxed
    Russian Language Unit :
    Title Menu

    VTS_01 Menu
    Video:
    NTSC 4:3 (720x480) VBR
    Auto Pan&Scan, Auto Letterboxed
    Language Unit :
    Chapter (PTT) Menu

    VTS_02 Menu
    Video:
    PAL 16:9 (720x576) VBR
    Auto Letterboxed
    Audio:
    Not specified (Dolby AC3, 2 ch)
    Russian Language Unit :
    Root Menu
    Chapter (PTT) Menu
Свернуть
mediainfo
    Формат : MPEG-PS
    Размер файла : 1024 Мбайт
    Продолжительность : 20 м.
    Режим общего битрейта : Переменный
    Общий поток : 6895 Кбит/сек

    Видео
    Идентификатор : 224 (0xE0)
    Формат : MPEG Video
    Версия формата : Version 2
    Профиль формата : Main@Main
    Параметр BVOP формата : Да
    Параметр матрицы формата : Выборочная
    Продолжительность : 20 м.
    Вид битрейта : Переменный
    Битрейт : 6309 Кбит/сек
    Максимальный битрейт : 9000 Кбит/сек
    Ширина : 720 пикселей
    Высота : 576 пикселей
    Соотношение сторон : 16:9
    Частота кадров : 25,000 кадров/сек
    Стандарт вещания : PAL
    Цветовое пространство : YUV
    Субдискретизация насыщенности : 4:2:0
    Битовая глубина : 8 бит
    Тип развёртки : Прогрессивная
    Порядок развёртки : Нижнее поле первое
    Метод сжатия : С потерями
    Бит/(Пиксели*Кадры) : 0.609
    Размер потока : 937 Мбайт (92%)

    Аудио
    Идентификатор : 189 (0xBD)-128 (0x80)
    Формат : AC-3
    Формат/Информация : Audio Coding 3
    Расширение режима : CM (complete main)
    Режим смешивания : DVD-Video
    Продолжительность : 20 м.
    Вид битрейта : Постоянный
    Битрейт : 448 Кбит/сек
    Каналы : 6 каналов
    Расположение каналов : Front: L C R, Side: L R, LFE
    Частота : 48,0 КГц
    Битовая глубина : 16 бит
    Метод сжатия : С потерями
    Размер потока : 66,5 Мбайт (6%)

    Меню
Свернуть
Скриншоты

меню
Изображение
Изображение
Свернуть
Изображение
Изображение
Изображение
Свернуть
Не в сети
Профиль  
Начать новую темуОтветить на тему  [ 1 сообщение ] 
Вы не можете начинать темы
Вы не можете отвечать на сообщения
Вы не можете редактировать свои сообщения
Вы не можете удалять свои сообщения