Правила форума

  • В этом разделе создание новых тем Запрещено.
  • Для создания новых тем пользуйтесь Корневым разделом DVD и HD фильмы.
Начать новую темуОтветить на тему  [ Сообщений: 4 ] 
Торрент файл
Размер: 4.37 GB • Зарегистрирован: 3 года 6 месяцев • Статус: Проверено
Скачан: 285 раз • Желающих скачать: 0 • Поблагодарили: 70 раз
 Раздают: 0  |  0 KB/s  ]   Качают: 0  |  0 KB/s  ] 
 Полного источника не было 23 дня 
Сообщения
 Добавлено: 2013-05-09 07:30
DVD Release Group
Аватара пользователя
Стаж: 7 лет 1 месяц
Сообщений: 3542
Спасибок: 246670
Лайков: 1016
Джек Ричер

Jack Reacher

«У закона есть пределы. У него их нет»


Изображение


Год выпуска: 2012
Страна: США
Жанр: Боевик, триллер, криминал
Продолжительность: 02:05:04
Перевод: Профессиональный (полное дублирование)
Субтитры: Русские, английские, украинские
Режиссер: Кристофер МакКуорри
В ролях: Том Круз, Розамунд Пайк, Ричард Дженкинс, Вернер Херцог, Дэвид Ойелоуо, Роберт Дюваль, Джей Кортни, Владимир Сизов, Джозеф Сикора, Майкл Рэймонд-Джеймс
Описание: Снайпер убивает пять случайных прохожих, но все улики указывают на человека, заключенного под стражу. На допросе подозреваемый умоляет об одном — найти Джека Ричера.
Изображение
Дополнительно:
Исходник: DVD9 (6.41Гб) [лицензия, PAL 16:9].
Убрано: все языки кроме русского, заставки и предупреждение.
Сжатие фильма 16,5% сжатия (без учета ручного перераспределения битрейта, за счет большего сжатия конечных титров).
Работоспособность проверена на софтовом плеере Windows Media и бытовом LG.
Sample:
http://multi-up.com/863513
Качество: DVD5 (сжатый)
Формат: DVD Video
Видео кодек: MPEG2
Аудио кодек: AC3
Видео: 720х576 25fps 4678Kbps
Аудио: 48kHz 6ch 448Kbps
"MediaInfo"
Формат : MPEG-PS
Размер файла : 1024 Мбайт
Продолжительность : 27 м.
Режим общего битрейта : Переменный
Общий поток : 5230 Кбит/сек

Видео
Идентификатор : 224 (0xE0)
Формат : MPEG Video
Версия формата : Version 2
Профиль формата : Main@Main
Параметр BVOP формата : Да
Параметр матрицы формата : Выборочная
Параметр GOP формата : M=3, N=12
Продолжительность : 27 м.
Вид битрейта : Переменный
Битрейт : 4678 Кбит/сек
Максимальный битрейт : 8791 Кбит/сек
Ширина : 720 пикселей
Высота : 576 пикселей
Соотношение сторон : 16:9
Частота кадров : 25,000 кадров/сек
Стандарт вещания : PAL
Цветовое пространство : YUV
Субдискретизация насыщенности : 4:2:0
Битовая глубина : 8 бит
Тип развёртки : Прогрессивная
Порядок развёртки : Верхнее поле первое
Метод сжатия : С потерями
Бит/(Пиксели*Кадры) : 0.451
Размер потока : 916 Мбайт (89%)

Аудио
Идентификатор : 189 (0xBD)-129 (0x81)
Формат : AC-3
Формат/Информация : Audio Coding 3
Расширение режима : CM (complete main)
Режим смешивания : DVD-Video
Продолжительность : 27 м.
Вид битрейта : Постоянный
Битрейт : 448 Кбит/сек
Каналы : 6 каналов
Расположение каналов : Front: L C R, Side: L R, LFE
Частота : 48,0 КГц
Битовая глубина : 16 бит
Метод сжатия : С потерями
Задержка видео : -576 мс.
Размер потока : 87,7 Мбайт (9%)

Текст #1
Идентификатор : 189 (0xBD)-32 (0x20)
Формат : RLE
Формат/Информация : Run-length encoding
Режим смешивания : DVD-Video

Текст #2
Идентификатор : 189 (0xBD)-33 (0x21)
Формат : RLE
Формат/Информация : Run-length encoding
Режим смешивания : DVD-Video

Текст #3
Идентификатор : 189 (0xBD)-34 (0x22)
Формат : RLE
Формат/Информация : Run-length encoding
Режим смешивания : DVD-Video

Текст #4
Идентификатор : 189 (0xBD)-35 (0x23)
Формат : RLE
Формат/Информация : Run-length encoding
Режим смешивания : DVD-Video

Текст #5
Идентификатор : 189 (0xBD)-36 (0x24)
Формат : RLE
Формат/Информация : Run-length encoding
Режим смешивания : DVD-Video

Текст #6
Идентификатор : 189 (0xBD)-37 (0x25)
Формат : RLE
Формат/Информация : Run-length encoding
Режим смешивания : DVD-Video

Меню
Свернуть

"Скриншоты"
Изображение
Изображение
Изображение
Изображение
Изображение
Изображение
Свернуть

Раздача группы:
Изображение
Не в сети
Профиль  
 Добавлено: 2013-05-10 13:19 (спустя 1 день 5 часов)
Кинокомментатор
Аватара пользователя
Стаж: 9 лет
Сообщений: 1331
Лайков: 52
такой он супер герой, которого все ждали! без сомнений и всяких глупостей типа закона!) смотреть ли? если вы любите криминальные боевики с закрученным сюжетом, то конечно да!
8/10
_________________
Я ВКонтакте
Не в сети
Профиль  
 Добавлено: 2013-05-12 23:59 (спустя 2 дня 10 часов)
Стаж: 6 лет 5 месяцев
Сообщений: 2
ЗНАЧИТ БУДЕМ СМОТРЕТЬ. THANKS
Не в сети
Профиль  
 Добавлено: 2013-06-15 22:57 (спустя 1 месяц 2 дня)
Аватара пользователя
Стаж: 7 лет 7 месяцев
Сообщений: 6
Отличный фильм!!! :co_ol:
Не в сети
Профиль  
Начать новую темуОтветить на тему  [ Сообщений: 4 ] 
Вы не можете начинать темы
Вы не можете отвечать на сообщения
Вы не можете редактировать свои сообщения
Вы не можете удалять свои сообщения