Правила форума

  • В этом разделе создание новых тем Запрещено.
  • Для создания новых тем пользуйтесь Корневым разделом DVD и HD фильмы.
Начать новую темуОтветить на тему  [ Сообщений: 4 ] 
Торрент файл
Размер: 7.44 GB • Зарегистрирован: 5 лет 2 месяца • Статус: Проверено
Скачан: 99 раз • Желающих скачать: 0 • Поблагодарили: 20 раз
 Раздают: 0  |  0 KB/s  ]   Качают: 0  |  0 KB/s  ] 
 Полного источника не было 3 года 2 месяца 
Сообщения
 Добавлено: 2011-09-27 22:38
Аватара пользователя
Стаж: 5 лет 5 месяцев
Возраст: 30
Сообщений: 353
Спасибок: 7455
Джейн Эйр / Jane Eyre

Изображение


Год выпуска: 2011
Страна: США, Великобритания (BBC Films, Focus Features, Ruby Films)
Жанр: драма, мелодрама
Продолжительность: 01:55:12
Перевод: Профессиональный (дубляж)
Дублеры: Серафима Огарёва, Алексей Розин, Илья Иосифов, Наталья Тенякова, Светлана Камынина + Профессиональный (дубляж)
Дублеры: Серафима Огарёва, Алексей Розин, Илья Иосифов, Наталья Тенякова, Светлана Камынина
Субтитры: Нет

Режиссёр: Кэри Фукунага / Cary Fukunaga
Сценарист: Моира Буффини, Шарлотта Бронте
Продюсер: Элисон Оуэн, Пол Триджбитс, Маири Бетт
Оператор: Адриано Голдман
Композитор: Дарио Марианелли

В ролях: Миа Васиковска, Майкл Фассбендер, Джейми Белл, Су Эллиот, Холли Грэйнджер, Тэмзин Мерчант, Амелия Кларксон, Крэйг Робертс, Салли Хокинс, Элизабет Хопли

Описание: Викторианская Англия. После восьми лет, проведенных в пансионе для бедных девочек, сирота Джейн Эйр получает место гувернантки в Торнфилде — вотчине Эдварда Ферфакса Рочестера. Хозяин поместья редко наведывается в родные края, а в его отсутствие Джейн должна присматривать за восьмилетней Адель Варанс — воспитанницей аристократа. И вот однажды Рочестер возвращается. Так начинается одна из самых известных романтических историй в европейской литературе и мировом кино…

Доп.информация: Смотрите на DVD
Рейтинг MPAA: Рейтинг PG-13 (Дети до 13 лет допускаются на фильм только с родителями)
Мировая премьера: 9 марта 2011
Премьера в России: 1 сентября 2011, «Вольга»
Кассовые сборы: + $11 444 973 = $22 687 633

Изображение Изображение Изображение

Качество: DVD9 R5
Формат: DVD Video
Видео кодек: MPEG2
Аудио кодек: DTS
Видео: PAL 16:9 (720x576(0.663)) MPEG Video, 25,000 кадр/сек, 6872 Кбит/сек
Аудио #1: Russian (Dolby AC3, 6 ch) 448 Кбит/сек, 48,0 КГц [Профессиональный (дубляж)]
Аудио #2: Russian (DTS, 6 ch) 755 Кбит/сек, 48,0 КГц [Профессиональный (дубляж)]
Субтитры: Нет
"DVDInfo"
Title: Рабочий
Size: 7.44 Gb ( 7 804 404 KBytes ) - DVD-9
Enabled regions: 1, 2, 3, 4, 5, 6, 7, 8

VTS_01 :
Play Length: 00:00:10
Video: PAL 16:9 (720x576) VBR, Auto Pan&Scan, Auto Letterboxed

VTS_02 :
Play Length: 00:00:06
Video: PAL 16:9 (720x576) VBR, Auto Pan&Scan, Auto Letterboxed

VTS_03 :
Play Length: 01:55:12
Video: PAL 16:9 (720x576) VBR, Auto Pan&Scan, Auto Letterboxed
Audio:
Russian (Dolby AC3, 6 ch)
Russian (DTS, 6 ch)

VTS_04 :
Play Length: 00:02:29
Video: PAL 16:9 (720x576) VBR, Auto Pan&Scan, Auto Letterboxed
Audio:
Not specified (Dolby AC3, 2 ch)

VTS_05 :
Play Length: 00:02:05
Video: PAL 16:9 (720x576) VBR, Auto Letterboxed
Audio:
Not specified (Dolby AC3, 2 ch)

VTS_06 :
Play Length: 00:02:12
Video: PAL 16:9 (720x576) VBR, Auto Pan&Scan, Auto Letterboxed
Audio:
Not specified (Dolby AC3, 2 ch)

VTS_07 :
Play Length: 00:01:58
Video: PAL 16:9 (720x576) VBR, Auto Pan&Scan, Auto Letterboxed
Audio:
Not specified (Dolby AC3, 2 ch)

VTS_08 :
Play Length: 00:01:38
Video: PAL 16:9 (720x576) VBR, Auto Pan&Scan, Auto Letterboxed
Audio:
Not specified (Dolby AC3, 2 ch)
Not specified (Dolby AC3, 2 ch)

Свернуть

"MediaInfo"
Общее
Полное имя : G:\Новинки 2011\Dzhejn.Ejr.2011.DVD9\VIDEO_TS\VTS_03_1.VOB
Формат : MPEG-PS
Размер файла : 1024 Мбайт
Продолжительность : 17 м.
Общий поток : 8239 Кбит/сек

Видео
Идентификатор : 224 (0xE0)
Формат : MPEG Video
Версия формата : Version 2
Профиль формата : Main@Main
Параметр BVOP формата : Да
Параметр матрицы формата : Выборочная
Параметр GOP формата : M=3, N=15
Продолжительность : 17 м.
Вид битрейта : Переменный
Битрейт : 6872 Кбит/сек
Максимальный битрейт : 8400 Кбит/сек
Ширина : 720 пикселей
Высота : 576 пикселей
Соотношение сторон : 16:9
Частота кадров : 25,000 кадров/сек
Стандарт вещания : PAL
Цветовое пространство : YUV
Субдискретизация насыщенности : 4:2:0
Битовая глубина : 8 бит
Тип развёртки : Чересстрочная
Порядок развёртки : Верхнее поле первое
Метод сжатия : С потерями
Бит/(Пиксели*Кадры) : 0.663
Размер потока : 854 Мбайт (83%)

Аудио #1
Идентификатор : 189 (0xBD)-128 (0x80)
Формат : AC-3
Формат/Информация : Audio Coding 3
Расширение режима : CM (complete main)
Режим смешивания : DVD-Video
Продолжительность : 17 м.
Вид битрейта : Постоянный
Битрейт : 448 Кбит/сек
Каналы : 6 каналов
Расположение каналов : Front: L C R, Side: L R, LFE
Частота : 48,0 КГц
Битовая глубина : 16 бит
Метод сжатия : С потерями
Размер потока : 55,7 Мбайт (5%)

Аудио #2
Идентификатор : 189 (0xBD)-137 (0x89)
Формат : DTS
Формат/Информация : Digital Theater Systems
Режим смешивания : DVD-Video
Продолжительность : 17 м.
Вид битрейта : Постоянный
Битрейт : 755 Кбит/сек
Каналы : 6 каналов
Расположение каналов : Front: L C R, Side: L R, LFE
Частота : 48,0 КГц
Битовая глубина : 16 бит
Метод сжатия : С потерями
Размер потока : 93,7 Мбайт (9%)

Свернуть

Скриншоты
Скриншоты меню
Изображение
Изображение
Изображение
Изображение
Свернуть
Изображение
Изображение
Изображение
Изображение
Изображение
Изображение
Изображение
Изображение
Свернуть

Знаете ли Вы, что...
Первоначально на главную роль претендовала Эллен Пэйдж, но впоследствии она отказалась от проекта.
Свернуть

Изображение Изображение
Не в сети
Профиль  
 Добавлено: 2011-09-28 19:26 (спустя 20 часов)
Аватара пользователя
Стаж: 8 лет 7 месяцев
Сообщений: 760
Спасибок: 3256
Лайков: 7
Спасибо давно ждал! :)
Не в сети
Профиль  
 Добавлено: 2011-10-01 16:50 (спустя 2 дня 21 час)
Аватара пользователя
Стаж: 8 лет 7 месяцев
Сообщений: 760
Спасибок: 3256
Лайков: 7
Извиняюсь за мультипост не могли бы вы выложить Обложку и скан диска именно этого издания? Хочется в коллекцию на полку! :)
Не в сети
Профиль  
 Добавлено: 2011-10-15 18:57 (спустя 14 дней)
Аватара пользователя
Стаж: 8 лет 3 месяца
Возраст: 43
Сообщений: 3290
Спасибок: 21012
Лайков: 3
Отлепляем :(
_________________
Изображение
Не в сети
Профиль  
Начать новую темуОтветить на тему  [ Сообщений: 4 ] 
Вы не можете начинать темы
Вы не можете отвечать на сообщения
Вы не можете редактировать свои сообщения
Вы не можете удалять свои сообщения